Results 1 to 1 of 1
  1. #1
    Hot Member www.desirulez.net
    Join Date
    Feb 2013
    Posts
    1,015

    Smile Jalsa(2008) DVDRip x264 [Dual-Audio] [Telugu-Hindi] By {TriZy}

    Follow us on Social Media





    Jalsa(2008) DVDRip x264 [Dual-Audio] [Telugu-Hindi] By {TriZy}



    INFO:

    General
    Unique ID : 200668802400411402017741817642133879954 (0x96F767D1C77EC616ADA504FD4765FC92)
    Complete name : Jalsa(2008) DVDRip x264 [Dual-Audio] [Telugu-Hindi] By TriZy.mkv
    Format : Matroska
    Format version : Version 4 / Version 2
    File size : 1.24 GiB
    Duration : 2h 43mn
    Overall bit rate : 1 088 Kbps
    Encoded date : UTC 2013-05-13 10:34:22
    Writing application : mkvmerge v6.0.0 ('Coming Up For Air') built on Jan 20 2013 09:52:00
    Writing library : libebml v1.3.0 + libmatroska v1.4.0

    Video
    ID : 1
    Format : AVC
    Format/Info : Advanced Video Codec
    Format profile : [email protected]
    Format settings, CABAC : Yes
    Format settings, ReFrames : 4 frames
    Codec ID : V_MPEG4/ISO/AVC
    Duration : 2h 43mn
    Bit rate : 894 Kbps
    Width : 1 280 pixels
    Height : 544 pixels
    Display aspect ratio : 2.35:1
    Frame rate : 25.000 fps
    Color space : YUV
    Chroma subsampling : 4:2:0
    Bit depth : 8 bits
    Scan type : Progressive
    Bits/(Pixel*Frame) : 0.051
    Stream size : 1 023 MiB (80%)


    Audio #1
    ID : 2
    Format : AC-3
    Format/Info : Audio Coding 3
    Mode extension : CM (complete main)
    Codec ID : A_AC3
    Duration : 2h 43mn
    Bit rate mode : Constant
    Bit rate : 128 Kbps
    Channel(s) : 6 channels
    Channel positions : Front: L C R, Side: L R, LFE
    Sampling rate : 48.0 KHz
    Bit depth : 16 bits
    Compression mode : Lossy
    Stream size : 150 MiB (12%)

    Audio #2
    ID : 3
    Format : MPEG Audio
    Format version : Version 2
    Format profile : Layer 3
    Mode : Joint stereo
    Mode extension : MS Stereo
    Codec ID : A_MPEG/L3
    Codec ID/Hint : MP3
    Duration : 2h 43mn
    Bit rate mode : Constant
    Bit rate : 64.0 Kbps
    Channel(s) : 2 channels
    Sampling rate : 22.05 KHz
    Compression mode : Lossy
    Stream size : 74.9 MiB (6%)
    Title : TriZy
    Writing library : LAME3.98.2
    Language : Hindi














    [ sample ]

    Code:
    http://www.arabloads.com/78htmlffypcp/sample.mkv.html

    [ DOWNLOAD ]


    [ arabloads ]

    Code:
    http://www.arabloads.com/6bz955djmbmv/Jalsa(2008)_DVDRip_x264_[Dual-Audio]_[Telugu-Hindi]_By_TriZy.mkv.html
    [ filesflash ]

    Code:
    http://filesflash.com/xsey9l1y
    [ speedshare ]

    Code:
    http://speedshare.eu/mg45ryu0ovtf/Jalsa(2008)_DVDRip_x264_[Dual-Audio]_[Telugu-Hindi]_By_TriZy.mkv.html










 

 

Posting Permissions

  • You may not post new threads
  • You may not post replies
  • You may not post attachments
  • You may not edit your posts
  •