Results 1 to 1 of 1
  1. #1
    dR Rockers www.desirulez.net
    Join Date
    Jun 2011
    Posts
    2,793

    Thumbs up Sahib Biwi Aur Gangster Returns BRRip 480p x264 Hindi ESubs - ViZNU 500Mb

    Follow us on Social Media









    Format : MPEG-4
    File size : 501 MiB
    Duration : 2h 22mn
    Overall bit rate mode : Variable
    Overall bit rate : 492 Kbps
    Source : BluRay.720p.DDR

    Video
    Format : AVC
    Bit rate : 449 Kbps
    Width : 720 pixels
    Height : 304 pixels
    Display aspect ratio : 2.35:1
    Frame rate mode : Constant
    Frame rate : 24.000 fps
    Stream size : 457 MiB (91%)
    Writing library : x264 core 130 r2273

    Audio
    Format : AAC
    Bit rate mode : Variable
    Bit rate : 39.9 Kbps
    Channel(s) : 2 channels
    Channel positions : Front: L R
    Sampling rate : 48.0 KHz
    Stream size : 40.7 MiB (8%)
    Language : Hindi

    Subtitle : Yes(English)









    (Resume Support/No Waiting)
    Code:
    http://queenshare.com/lbipfrspxtor/SBAGR480p.mp4



 

 

Posting Permissions

  • You may not post new threads
  • You may not post replies
  • You may not post attachments
  • You may not edit your posts
  •