Results 1 to 1 of 1
  1. #1
    Hot Member www.desirulez.net
    Join Date
    Feb 2013
    Posts
    1,015

    Smile Chehraa [2005] With English Subtitles - WebRip By Gautam The HBK

    Follow us on Social Media





    Chehraa [2005] With English Subtitles - WebRip By Gautam The HBK





    General


    Format : AVI
    Format/Info : Audio Video Interleave
    File size : 742 MiB
    Duration : 2h 15mn
    Overall bit rate mode : Variable
    Overall bit rate : 764 Kbps


    ID : 0
    Format : MPEG-4 Visual
    Format profile : Advanced [email protected]
    Format settings, BVOP : 2
    Format settings, QPel : No
    Format settings, GMC : No warppoints
    Format settings, Matrix : Default (H.263)
    Codec ID : XVID
    Codec ID/Hint : XviD
    Duration : 2h 15mn
    Bit rate : 666 Kbps
    Width : 640 pixels
    Height : 288 pixels
    Display aspect ratio : 2.222
    Frame rate : 29.970 fps
    Color space : YUV
    Chroma subsampling : 4:2:0
    Bit depth : 8 bits
    Scan type : Progressive
    Compression mode : Lossy
    Bits/(Pixel*Frame) : 0.121
    Stream size : 647 MiB (87%)
    Writing library : XviD 1.2.1 (UTC 2008-12-04)


    ID : 1
    Format : MPEG Audio
    Format version : Version 1
    Format profile : Layer 3
    Mode : Joint stereo
    Mode extension : MS Stereo
    Codec ID : 55
    Codec ID/Hint : MP3
    Duration : 2h 15mn
    Bit rate mode : Variable
    Bit rate : 84.0 Kbps
    Channel(s) : 2 channels
    Sampling rate : 44.1 KHz
    Compression mode : Lossy
    Stream size : 81.6 MiB (11%)
    Alignment : Aligned on interleaves
    Interleave, duration : 26 ms (0.78 video frame)
    Interleave, preload duration : 461 ms











    [ sample ]

    Code:
    http://www.arabloads.com/hj1fpelpodo5/Sample.mkv.html

    [ DOWNLOAD ]


    [ arabloads ]

    Code:
    http://www.arabloads.com/dsxj6rk9gtjs/Chehraa_[2005]_With_English_Subtitles_-_WebRip_By_Gautam_The_HBK.mkv.html
    [ hugefiles ]

    Code:
    http://hugefiles.net/eqda4summ7ts
    [ filesflash ]

    Code:
    http://filesflash.com/w9lhrcsf












 

 

Posting Permissions

  • You may not post new threads
  • You may not post replies
  • You may not post attachments
  • You may not edit your posts
  •