Results 1 to 1 of 1
  1. #1
    Hot Member www.desirulez.net
    Join Date
    Feb 2013
    Posts
    1,015

    Smile S. D. Burman - Legends SD Burman The Ageless All-Rounder Vol 2-[FLAC]

    Follow us on Social Media





    S. D. Burman - Legends SD Burman The Ageless All-Rounder Vol 2-[FLAC]



    Exact Audio Copy V1.0 beta 3 from 29. August 2011

    EAC extraction logfile from 3. May 2013, 15:25

    S. D. Burman / Legends SD Burman The Ageless All-Rounder Vol 2

    Used drive : hp DVD-RAM GH60L Adapter: 0 ID: 1

    Read mode : Secure
    Utilize accurate stream : Yes
    Defeat audio cache : Yes
    Make use of C2 pointers : No

    Read offset correction : 667
    Overread into Lead-In and Lead-Out : No
    Fill up missing offset samples with silence : Yes
    Delete leading and trailing silent blocks : No
    Null samples used in CRC calculations : Yes
    Used interface : Native Win32 interface for Win NT & 2000
    Gap handling : Appended to previous track

    Used output format : User Defined Encoder
    Selected bitrate : 896 kBit/s
    Quality : High
    Add ID3 tag : No
    Command line compressor : C:\Program Files (x86)\Exact Audio Copy\Flac\flac.exe
    Additional command line options : -V -8 -T "ARTIST=%artist%" -T "TITLE=%title%" -T "ALBUM=%albumtitle%" -T "DATE=%year%" -T "TRACKNUMBER=%tracknr%" -T "GENRE=%genre%" %source% -o %dest%


    TOC of the extracted CD

    Track | Start | Length | Start sector | End sector
    ---------------------------------------------------------
    1 | 0:00.00 | 4:29.56 | 0 | 20230
    2 | 4:29.56 | 3:27.41 | 20231 | 35796
    3 | 7:57.22 | 4:04.12 | 35797 | 54108
    4 | 12:01.34 | 3:28.04 | 54109 | 69712
    5 | 15:29.38 | 3:46.72 | 69713 | 86734
    6 | 19:16.35 | 3:19.45 | 86735 | 101704
    7 | 22:36.05 | 4:20.66 | 101705 | 121270
    8 | 26:56.71 | 3:24.44 | 121271 | 136614
    9 | 30:21.40 | 4:02.42 | 136615 | 154806
    10 | 34:24.07 | 2:44.39 | 154807 | 167145
    11 | 37:08.46 | 3:58.02 | 167146 | 184997
    12 | 41:06.48 | 3:56.60 | 184998 | 202757
    13 | 45:03.33 | 4:24.53 | 202758 | 222610
    14 | 49:28.11 | 3:21.53 | 222611 | 237738
    15 | 52:49.64 | 3:27.59 | 237739 | 253322
    16 | 56:17.48 | 3:47.10 | 253323 | 270357
    17 | 60:04.58 | 3:00.03 | 270358 | 283860
    18 | 63:04.61 | 3:09.54 | 283861 | 298089
    19 | 66:14.40 | 4:50.11 | 298090 | 319850
    20 | 71:04.51 | 2:08.36 | 319851 | 329486


    Track 1

    Filename C:\EACrips\01 - Majrooh Speaks; Kishore Kumar, Asha Bhosle - Chhod Do Aanchal (Paying Gues 1957 Majrooh Sultanpuri).wav

    Pre-gap length 0:00:02.00

    Peak level 100.0 %
    Extraction speed 1.9 X
    Track quality 100.0 %
    Test CRC 6942C87F
    Copy CRC 6942C87F
    Accurately ripped (confidence 2) [94C3AC88] (AR v1)
    Copy OK

    Track 2

    Filename C:\EACrips\02 - Kishore Kumar, Asha Bhosle - Aankhon Me Kya Jee (Nau Do Gyarah 1957 Majrooh Sultanpuri).wav

    Peak level 86.5 %
    Extraction speed 2.0 X
    Track quality 100.0 %
    Test CRC B3587881
    Copy CRC B3587881
    Accurately ripped (confidence 2) [A7273D9B] (AR v1)
    Copy OK

    Track 3

    Filename C:\EACrips\03 - Geeta Dutt, Mohammed Rafi - Ham Aap Ki Aankhon Mein (Pyaasa 1957 Sahir Ludhianvi).wav

    Peak level 92.4 %
    Extraction speed 2.2 X
    Track quality 100.0 %
    Test CRC FA5217F2
    Copy CRC FA5217F2
    Accurately ripped (confidence 2) [418C3D37] (AR v1)
    Copy OK

    Track 4

    Filename C:\EACrips\04 - Hemant Kumar - Jaane Woh Kaise (Pyaasa 1957 Sahir Ludhianvi).wav

    Peak level 95.4 %
    Extraction speed 2.2 X
    Track quality 100.0 %
    Test CRC 0C96891C
    Copy CRC 0C96891C
    Accurately ripped (confidence 2) [450E84EC] (AR v1)
    Copy OK

    Track 5

    Filename C:\EACrips\05 - Jatin Lalit Speak; Mohammed Rafi - Hum Bekhudi Me (Kala Pani 1958 Majrooh Sultanpuri).wav

    Peak level 100.0 %
    Extraction speed 2.4 X
    Track quality 100.0 %
    Test CRC 96A3F39D
    Copy CRC 96A3F39D
    Accurately ripped (confidence 2) [EF7E5C39] (AR v1)
    Copy OK

    Track 6

    Filename C:\EACrips\06 - Asha Bhosle - Koi Aaya Dhadkan Kehti Hai (Lajwanti 1958 Majrooh Sultanpuri).wav

    Peak level 100.0 %
    Extraction speed 2.5 X
    Track quality 100.0 %
    Test CRC 85155B67
    Copy CRC 85155B67
    Accurately ripped (confidence 2) [05F35D07] (AR v1)
    Copy OK

    Track 7

    Filename C:\EACrips\07 - Hemant Kumar - Hai Apna Dil to Awaara (Solva Saal 1958 Mjrooh Sultanpuri).wav

    Peak level 67.9 %
    Extraction speed 2.7 X
    Track quality 100.0 %
    Test CRC FAA0BB1A
    Copy CRC FAA0BB1A
    Accurately ripped (confidence 2) [C1E2F188] (AR v1)
    Copy OK

    Track 8

    Filename C:\EACrips\08 - Mohammed Rafi, Asha Bhosle - Chand Sa Mukhda (Insan Jaag Utha 1959 Shailendra).wav

    Peak level 74.4 %
    Extraction speed 2.8 X
    Track quality 100.0 %
    Test CRC 303C8909
    Copy CRC 303C8909
    Accurately ripped (confidence 2) [04BA7EC0] (AR v1)
    Copy OK

    Track 9

    Filename C:\EACrips\09 - Talat Mahmood - Jalte Hain Jiske Liye (Sujata 1959 Majrooh Sultanpuri).wav

    Peak level 83.9 %
    Extraction speed 2.9 X
    Track quality 100.0 %
    Test CRC E1707D62
    Copy CRC E1707D62
    Accurately ripped (confidence 2) [D7AC1523] (AR v1)
    Copy OK

    Track 10

    Filename C:\EACrips\10 - S D Burman - Sun Mere Bandhu Re (Sujata 1959 Majrooh Sultanpuri).wav

    Peak level 100.0 %
    Extraction speed 2.8 X
    Track quality 100.0 %
    Test CRC 3C395227
    Copy CRC 3C395227
    Accurately ripped (confidence 2) [4C25FD47] (AR v1)
    Copy OK

    Track 11

    Filename C:\EACrips\11 - R D Burman Speaks; Geeta Dutt - Waqt Ne Kiya (Kaagaz Ke Phool 1959 Kaifi Azmi).wav

    Peak level 100.0 %
    Extraction speed 2.7 X
    Track quality 99.9 %
    Test CRC 157D8EC8
    Copy CRC 157D8EC8
    Accurately ripped (confidence 2) [B447C214] (AR v1)
    Copy OK

    Track 12

    Filename C:\EACrips\12 - Kishore Kumar - Ek Ladki Bheegi Bhagi Si (Chalti Ka Naam Gadi 1958 Majrooh Sultanpuri).wav

    Peak level 97.9 %
    Extraction speed 3.2 X
    Track quality 100.0 %
    Test CRC CAC2873C
    Copy CRC CAC2873C
    Accurately ripped (confidence 2) [EAF3366A] (AR v1)
    Copy OK

    Track 13

    Filename C:\EACrips\13 - Asha Bhosle, Kishore Kumar - Haal Kaisa Hai Janaab Ka (Chalti Ka Naam Gadi 1958 Majrooh Sultanpuri).wav

    Peak level 100.0 %
    Extraction speed 3.4 X
    Track quality 100.0 %
    Test CRC FF522285
    Copy CRC FF522285
    Accurately ripped (confidence 2) [D8C29146] (AR v1)
    Copy OK

    Track 14

    Filename C:\EACrips\14 - Mohammed Rafi, Geeta Dutt - Chupke Se Mile (Mazil 1960 Majrooh Sultanpuri).wav

    Peak level 100.0 %
    Extraction speed 3.3 X
    Track quality 100.0 %
    Test CRC B1B1B1C0
    Copy CRC B1B1B1C0
    Accurately ripped (confidence 2) [2CDDC21E] (AR v1)
    Copy OK

    Track 15

    Filename C:\EACrips\15 - Mohammed Rafi, Asha Bhosle - Diwana Mastana Hua Dil (Bombai Ka Babu 1960 Majrooh Sultanpuri).wav

    Peak level 84.2 %
    Extraction speed 2.9 X
    Track quality 99.9 %
    Test CRC 216C396B
    Copy CRC 216C396B
    Accurately ripped (confidence 2) [89D31574] (AR v1)
    Copy OK

    Track 16

    Filename C:\EACrips\16 - Manna Dey, Asha Bhosle - Sanjh Dhali (Kala Bazar 1960 Shailendra).wav

    Peak level 89.0 %
    Extraction speed 3.5 X
    Track quality 100.0 %
    Test CRC 579341B8
    Copy CRC 579341B8
    Accurately ripped (confidence 2) [6235EAC0] (AR v1)
    Copy OK

    Track 17

    Filename C:\EACrips\17 - Suman Kalyanpur - Chhodo Chhodo Mori Baiyan (Miya Bibi Razi 1960 Shailendra).wav

    Peak level 100.0 %
    Extraction speed 3.5 X
    Track quality 100.0 %
    Test CRC A70937D1
    Copy CRC A70937D1
    Accurately ripped (confidence 2) [9829F957] (AR v1)
    Copy OK

    Track 18

    Filename C:\EACrips\18 - Asha Bhosle - Tujhe Mili Roshni (Apna Haath Jagannath 1960 Kaifi Azmi).wav

    Peak level 100.0 %
    Extraction speed 3.6 X
    Track quality 100.0 %
    Test CRC 5AB51913
    Copy CRC 5AB51913
    Accurately ripped (confidence 2) [2F5C04F9] (AR v1)
    Copy OK

    Track 19

    Filename C:\EACrips\19 - Mohammed Rafi - Saathi Na Koi Manzil (Bombai Ka Babu 1960 Majrooh Sultanpuri).wav

    Peak level 100.0 %
    Extraction speed 3.4 X
    Track quality 99.9 %
    Test CRC AB40DA0A
    Copy CRC AB40DA0A
    Accurately ripped (confidence 2) [D036212E] (AR v1)
    Copy OK

    Track 20

    Filename C:\EACrips\20 - Mohammed Rafi - Dekhi Zamaane Ki Yaari (Kaagaz Ke Phool 1959 Kaifi Azmi).wav

    Peak level 58.1 %
    Extraction speed 2.9 X
    Track quality 99.9 %
    Test CRC CFF7BDB1
    Copy CRC CFF7BDB1
    Accurately ripped (confidence 2) [7F5AB10F] (AR v1)
    Copy OK


    All tracks accurately ripped

    No errors occurred

    End of status report

    ==== Log checksum F75DFF5935A86FBE82C02F0EDE49AF9BC182F58DA4D244C28E6B474772FF9BCB ====





    [ DOWNLOAD ]


    Code:
    http://www.arabloads.com/eaowp9cnvfq7/01_-_Majrooh_Speaks_-_Kishore_Kumar,_Asha_Bhosle_-_Chhod_Do_Aanchal_(Paying_Gues_1957_Majrooh_Sultanpuri).flac.html
    http://www.arabloads.com/3rklbjbypzrx/02_-_Kishore_Kumar,_Asha_Bhosle_-_Aankhon_Me_Kya_Jee_(Nau_Do_Gyarah_1957_Majrooh_Sultanpuri).flac.html
    http://www.arabloads.com/9kuouq73qya1/03_-_Geeta_Dutt,_Mohammed_Rafi_-_Ham_Aap_Ki_Aankhon_Mein_(Pyaasa_1957_Sahir_Ludhianvi).flac.html
    http://www.arabloads.com/57v632xh9twq/04_-_Hemant_Kumar_-_Jaane_Woh_Kaise_(Pyaasa_1957_Sahir_Ludhianvi).flac.html
    http://www.arabloads.com/ebt6efrg2h0d/05_-_Jatin_Lalit_Speak_-_Mohammed_Rafi_-_Hum_Bekhudi_Me_(Kala_Pani_1958_Majrooh_Sultanpuri).flac.html
    http://www.arabloads.com/fqp9txfp1cbp/06_-_Asha_Bhosle_-_Koi_Aaya_Dhadkan_Kehti_Hai_(Lajwanti_1958_Majrooh_Sultanpuri).flac.html
    http://www.arabloads.com/tc62i8p5pkbi/07_-_Hemant_Kumar_-_Hai_Apna_Dil_to_Awaara_(Solva_Saal_1958_Mjrooh_Sultanpuri).flac.html
    http://www.arabloads.com/xfoxi1t08pja/08_-_Mohammed_Rafi,_Asha_Bhosle_-_Chand_Sa_Mukhda_(Insan_Jaag_Utha_1959_Shailendra).flac.html
    http://www.arabloads.com/zcxokmx4yiwo/09_-_Talat_Mahmood_-_Jalte_Hain_Jiske_Liye_(Sujata_1959_Majrooh_Sultanpuri).flac.html
    http://www.arabloads.com/1xbc09p1ol3f/10_-_S_D_Burman_-_Sun_Mere_Bandhu_Re_(Sujata_1959_Majrooh_Sultanpuri).flac.html
    http://www.arabloads.com/faxp9p29o5x2/11_-_R_D_Burman_Speaks_-_Geeta_Dutt_-_Waqt_Ne_Kiya_(Kaagaz_Ke_Phool_1959_Kaifi_Azmi).flac.html
    http://www.arabloads.com/3elny8cgytam/12_-_Kishore_Kumar_-_Ek_Ladki_Bheegi_Bhagi_Si_(Chalti_Ka_Naam_Gadi_1958_Majrooh_Sultanpuri).flac.html
    http://www.arabloads.com/z3jihcz3z7cx/13_-_Asha_Bhosle,_Kishore_Kumar_-_Haal_Kaisa_Hai_Janaab_Ka_(Chalti_Ka_Naam_Gadi_1958_Majrooh_Sultanpuri).flac.html
    http://www.arabloads.com/scnx7u1kkca0/14_-_Mohammed_Rafi,_Geeta_Dutt_-_Chupke_Se_Mile_(Mazil_1960_Majrooh_Sultanpuri).flac.html
    http://www.arabloads.com/io5zezhurw1r/15_-_Mohammed_Rafi,_Asha_Bhosle_-_Diwana_Mastana_Hua_Dil_(Bombai_Ka_Babu_1960_Majrooh_Sultanpuri).flac.html
    http://www.arabloads.com/ydy24tzw5ez1/16_-_Manna_Dey,_Asha_Bhosle_-_Sanjh_Dhali_(Kala_Bazar_1960_Shailendra).flac.html
    http://www.arabloads.com/7jehlbi61hrj/17_-_Suman_Kalyanpur_-_Chhodo_Chhodo_Mori_Baiyan_(Miya_Bibi_Razi_1960_Shailendra).flac.html
    http://www.arabloads.com/dzikvlyythsi/18_-_Asha_Bhosle_-_Tujhe_Mili_Roshni_(Apna_Haath_Jagannath_1960_Kaifi_Azmi).flac.html
    http://www.arabloads.com/tenls19j56ju/19_-_Mohammed_Rafi_-_Saathi_Na_Koi_Manzil_(Bombai_Ka_Babu_1960_Majrooh_Sultanpuri).flac.html
    http://www.arabloads.com/355bih77d5bc/20_-_Mohammed_Rafi_-_Dekhi_Zamaane_Ki_Yaari_(Kaagaz_Ke_Phool_1959_Kaifi_Azmi).flac.html












 

 

Posting Permissions

  • You may not post new threads
  • You may not post replies
  • You may not post attachments
  • You may not edit your posts
  •