Results 1 to 1 of 1
  1. #1
    Hot Member www.desirulez.net
    Join Date
    Feb 2013
    Posts
    1,015

    Smile Farut Chat Full Comedy Stage Show - VCDRip - [Team ExDE$ ExclusivE]

    Follow us on Social Media





    Farut Chat Full Comedy Stage Show - VCDRip - [Team ExDE$ ExclusivE]



    [ Star Cast ]



    [ nfo ]

    Complete name : Farut Chat Full Comedy Stage Show - VCDRip - [Team ExDE$ EExclusivE]
    Format : Matroska
    Format version : Version 4 / Version 2
    File size : 1 018 MiB
    Duration : 2h 4mn
    Overall bit rate mode : Variable
    Overall bit rate : 1 140 Kbps
    Movie name : -=Rana.Aqib786=- [Team ExDE$ ExclusivE]
    Writing application : mkvmerge v6.2.0 ('Promised Land') built on Apr 28 2013 12:22:01
    Writing library : libebml v1.3.0 + libmatroska v1.4.0

    Video
    ID : 1
    Format : MPEG Video
    Format version : Version 2
    Codec ID : V_MPEG2
    Codec ID/Info : MPEG 1 or 2 Video
    Duration : 2h 4mn
    Bit rate mode : Variable
    Bit rate : 989 Kbps
    Maximum bit rate : 9 672 Kbps
    Width : 352 pixels
    Height : 288 pixels
    Display aspect ratio : 4:3
    Frame rate mode : Constant
    Frame rate : 25.000 fps
    Standard : PAL
    Color space : YUV
    Compression mode : Lossy
    Stream size : 883 MiB (87%)
    Default : Yes

    Audio
    ID : 2
    Format : MPEG Audio
    Format version : Version 1
    Format profile : Layer 2
    Codec ID : A_MPEG/L2
    Codec ID/Hint : MP2
    Duration : 2h 4mn
    Bit rate mode : Constant
    Bit rate : 128 Kbps
    Channel(s) : 2 channels
    Sampling rate : 48.0 KHz
    Compression mode : Lossy
    Stream size : 114 MiB (11%)
    Title : -=Rana.Aqib786=- [Team ExDE$]
    Language : Panjabi
    Default : Yes
    Forced : No



    [ Screen ]




    [ sample ]

    Code:
    http://www.arabloads.com/oytyxlk9brfn/Sample.mkv.html

    [ DOWNLOAD ]


    [ arabloads ]

    Code:
    http://www.arabloads.com/5nimnbzqbt16/Farut_Chat_Full_Comedy_Stage_Show_-_VCDRip_-_[Team_ExDE$_ExclusivE].mkv.html
    [ hugefiles ]

    Code:
    http://hugefiles.net/rp9wnijyi97l
    [ filesflash ]

    Code:
    http://filesflash.com/fr2nwyuz
    [ speedshare ]

    Code:
    http://speedshare.eu/9yp7eym06i5t/Farut_Chat_Full_Comedy_Stage_Show_-_VCDRip_-_[Team_ExDE$_ExclusivE].mkv.html










 

 

Posting Permissions

  • You may not post new threads
  • You may not post replies
  • You may not post attachments
  • You may not edit your posts
  •