Results 1 to 1 of 1
  1. #1
    Hot Member www.desirulez.net
    Join Date
    Feb 2013
    Posts
    1,015

    Smile 2 Bata 3 Full Comedy Stage Show - VCDRip - [Team ExDE$ Xclusive]

    Follow us on Social Media





    2 Bata 3 Full Comedy Stage Show - VCDRip - [Team ExDE$ Xclusive]



    [ Star Cast ]



    [ nfo ]

    Complete name : 2 Bata 3 Full Comedy Stage Show - VCDRip - [Team ExDE$ Xclusive].mkv
    Format : Matroska
    Format version : Version 4 / Version 2
    File size : 1.25 GiB
    Duration : 2h 19mn
    Overall bit rate mode : Variable
    Overall bit rate : 1 283 Kbps
    Writing application : mkvmerge v6.2.0 ('Promised Land') built on Apr 28 2013 12:22:01
    Writing library : libebml v1.3.0 + libmatroska v1.4.0

    Video
    ID : 1
    Format : MPEG Video
    Format version : Version 1
    Format settings, Matrix : Default
    Codec ID/Info : MPEG 1 or 2 Video
    Duration : 2h 19mn
    Bit rate mode : Variable
    Bit rate : 1 130 Kbps
    Maximum bit rate : 1 150 Kbps
    Width : 352 pixels
    Height : 240 pixels
    Display aspect ratio : 3:2
    Original display aspect ratio : 4:3
    Frame rate mode : Constant
    Frame rate : 29.970 fps
    Bit depth : 8 bits
    Scan type : Progressive
    Compression mode : Lossy
    Stream size : 1.10 GiB (88%)
    Default : Yes
    Forced : No

    Audio
    ID : 2
    Format : MPEG Audio
    Format version : Version 1
    Format profile : Layer 2
    Codec ID : A_MPEG/L2
    Codec ID/Hint : MP2
    Duration : 2h 19mn
    Bit rate mode : Constant
    Bit rate : 128 Kbps
    Channel(s) : 2 channels
    Sampling rate : 48.0 KHz
    Compression mode : Lossy
    Stream size : 128 MiB (10%)


    [ Screen ]



    [ sample ]

    Code:
    http://www.arabloads.com/a8yae0rlyspi/2_Bata_3_[Sample].mkv.html

    [ DOWNLOAD ]


    [ arabloads ]

    Code:
    http://www.arabloads.com/fgxh5xjr6y4m/2_Bata_3_Full_Comedy_Stage_Show_-_VCDRip_-_[Team_ExDE$_Xclusive].mkv.html
    [ hugefiles ]

    Code:
    http://hugefiles.net/izve7foq58ph
    [ filesflash ]

    Code:
    http://filesflash.com/fst8ui5u
    [ speedshare ]

    Code:
    http://speedshare.eu/amxzexk2vssq/2_Bata_3_Full_Comedy_Stage_Show_-_VCDRip_-__5BTeam_ExDE$_Xclusive_5D.mkv.html










 

 

Posting Permissions

  • You may not post new threads
  • You may not post replies
  • You may not post attachments
  • You may not edit your posts
  •