Results 1 to 1 of 1
  1. #1
    Hot Member www.desirulez.net
    Join Date
    Feb 2013
    Posts
    1,015

    Thumbs up Ek Thi Daayan (2013) DVDRip [400MB] Mkv x264 - MP3 - ESubs - By Mafiaking [Team EXD]

    Follow us on Social Media





    Ek Thi Daayan (2013) DVDRip [400MB] Mkv x264 - MP3 - ESubs - By Mafiaking [Team EXD]





    General


    Unique ID : 195591972130807393703682710398679732429 (0x9325A4C3066FFA40A5E6C04E540150CD)
    Complete name : Ek Thi Daayan (2013) DVDRip [400MB] Mkv x264 - MP3 - ESubs - By Mafiaking [Team EXD] (1).mkv
    Format : Matroska
    Format version : Version 2
    File size : 400 MiB
    Duration : 2h 7mn
    Overall bit rate : 440 Kbps
    Movie name : Ek Thi Daayan (2013) DVDRip [400MB] Mkv x264 - MP3 - ESubs - By Mafiaking [Team EXD]
    Encoded date : UTC 2013-06-07 14:22:29
    Writing application : mkvmerge v5.7.0 ('The Whirlwind') built on Jul 8 2012 20:08:51
    Writing library : libebml v1.2.3 + libmatroska v1.3.0





    Video


    ID : 1
    Format : AVC
    Format/Info : Advanced Video Codec
    Format profile : [email protected]
    Format settings, CABAC : Yes
    Format settings, ReFrames : 4 frames
    Muxing mode : Header stripping
    Codec ID : V_MPEG4/ISO/AVC
    Duration : 2h 7mn
    Bit rate : 374 Kbps
    Width : 688 pixels
    Height : 288 pixels
    Display aspect ratio : 2.40:1
    Frame rate mode : Constant
    Frame rate : 29.970 fps
    Color space : YUV
    Chroma subsampling : 4:2:0
    Bit depth : 8 bits
    Scan type : Progressive
    Bits/(Pixel*Frame) : 0.063
    Stream size : 334 MiB (83%)
    Title : Mafiaking
    Writing library : x264 core 130 r2273 b3065e6
    Encoding settings : cabac=1 / ref=2 / deblock=1:0:0 / analyse=0x3:0x113 / me=hex / subme=6 / psy=1 / psy_rd=1.00:0.00 / mixed_ref=1 / me_range=16 / chroma_me=1 / trellis=1 / 8x8dct=1 / cqm=0 / deadzone=21,11 / fast_pskip=1 / chroma_qp_offset=-2 / threads=1 / lookahead_threads=1 / sliced_threads=0 / nr=0 / decimate=1 / interlaced=0 / bluray_compat=0 / constrained_intra=0 / bframes=3 / b_pyramid=2 / b_adapt=1 / b_bias=0 / direct=1 / weightb=1 / open_gop=0 / weightp=1 / keyint=300 / keyint_min=29 / scenecut=40 / intra_refresh=0 / rc_lookahead=30 / rc=2pass / mbtree=1 / bitrate=374 / ratetol=1.0 / qcomp=0.60 / qpmin=0 / qpmax=69 / qpstep=4 / cplxblur=20.0 / qblur=0.5 / ip_ratio=1.40 / aq=1:1.00
    Language : English
    Default : Yes
    Forced : No





    Audio


    ID : 2
    Format : MPEG Audio
    Format version : Version 2
    Format profile : Layer 3
    Mode : Joint stereo
    Mode extension : MS Stereo
    Muxing mode : Header stripping
    Codec ID : A_MPEG/L3
    Codec ID/Hint : MP3
    Duration : 2h 7mn
    Bit rate mode : Constant
    Bit rate : 64.0 Kbps
    Channel(s) : 2 channels
    Sampling rate : 24.0 KHz
    Compression mode : Lossy
    Stream size : 58.3 MiB (15%)
    Title : Mafiaking
    Writing library : LAME3.99r
    Encoding settings : -m j -V 4 -q 2 -lowpass 11 -b 64
    Language : Hindi
    Default : Yes
    Forced : No














    [ sample ]

    Code:
    http://www.arabloads.com/pt5gdjv2n308/Sample-Ek_Thi_Daayan_(2013)_DVDRip_[400MB]_Mkv_x264_-_MP3_-_ESubs_-_By_Mafiaking_[Team_EXD].mkv.html
    [ subtitle ]

    Code:
    http://www.arabloads.com/k6ahcvr5y61n/Ek_Thi_Daayan_(2013)_DVDRip_[400MB]_Mkv_x264_-_MP3_-_ESubs_-_By_Mafiaking_[Team_EXD].srt.html

    [ DOWNLOAD ]


    [ arabloads ]

    Code:
    http://www.arabloads.com/478kjfogc802/Ek_Thi_Daayan_(2013)_DVDRip_[400MB]_Mkv_x264_-_MP3_-_ESubs_-_By_Mafiaking_[Team_EXD]_(1).mkv.html
    [ hugefiles ]

    Code:
    http://hugefiles.net/ad8zi1nkyl0s
    [ filesflash ]

    Code:
    http://filesflash.com/3sd6xi44












 

 

Posting Permissions

  • You may not post new threads
  • You may not post replies
  • You may not post attachments
  • You may not edit your posts
  •