Results 1 to 1 of 1
  1. #1
    Super Member www.desirulez.net
    Join Date
    Apr 2013
    Posts
    211

    Cool Yamla Pagla Deewana 2 (2013) HD CAM Untouched - Team IcTv Exclusive

    Follow us on Social Media





    Yamla Pagla Deewana 2 (2013) HD CAM Untouched - Team IcTv Exclusive




    Code:
    Format                                   : MPEG-PS
    File size                                : 673 MiB
    Duration                                 : 2h 24mn
    Overall bit rate mode                    : Variable
    Overall bit rate                         : 650 Kbps
    
    Video
    ID                                       : 224 (0xE0)
    Format                                   : MPEG Video
    Format version                           : Version 2
    Format profile                           : [email protected]
    Format settings, BVOP                    : Yes
    Format settings, Matrix                  : Default
    Format settings, GOP                     : Variable
    Duration                                 : 2h 24mn
    Bit rate mode                            : Variable
    Bit rate                                 : 509 Kbps
    Maximum bit rate                         : 9 672 Kbps
    Width                                    : 352 pixels
    Height                                   : 288 pixels
    Display aspect ratio                     : 4:3
    Frame rate                               : 25.000 fps
    Standard                                 : PAL
    Color space                              : YUV
    Chroma subsampling                       : 4:2:0
    Bit depth                                : 8 bits
    Scan type                                : Progressive
    Compression mode                         : Lossy
    Bits/(Pixel*Frame)                       : 0.201
    Time code of first frame                 : 00:00:00:00
    Time code source                         : Group of pictures header
    Stream size                              : 527 MiB (78%)
    
    Audio
    ID                                       : 192 (0xC0)
    Format                                   : MPEG Audio
    Format version                           : Version 1
    Format profile                           : Layer 2
    Duration                                 : 2h 24mn
    Bit rate mode                            : Constant
    Bit rate                                 : 128 Kbps
    Channel(s)                               : 2 channels
    Sampling rate                            : 48.0 KHz
    Compression mode                         : Lossy
    Stream size                              : 133 MiB (20%)












    Code:
    http://sanshare.com/znmstjkhjjww/Y4ml4_P4gl44_D3w4n4_2_2K13_Unt0uch3d_Team_IcTv.VOB.html

    Code:
    http://ultramegabit.com/file/details/9tlbOP_neLE

    Code:
    http://speedshare.eu/gfqg02ahxlc2/Y4ml4_P4gl44_D3w4n4_2_2K13_Unt0uch3d_Team_IcTv.VOB.html

 

 

Posting Permissions

  • You may not post new threads
  • You may not post replies
  • You may not post attachments
  • You may not edit your posts
  •