Results 1 to 1 of 1
  1. #1
    Hot Member www.desirulez.net
    Join Date
    Feb 2013
    Posts
    1,015

    Thumbs up Ek Thi Daayan (2013)-720p.DVDRip-x264.6Ch-[E-SUB][email protected] [[email protected] Exclusive]

    Follow us on Social Media





    Ek Thi Daayan (2013)-720p.DVDRip-x264.6Ch-[E-SUB][email protected] [[email protected] Exclusive]



    Rip Information

    Format : Matroska
    Format version : Version 4 / Version 2
    File size : 1.36 GiB
    Duration : 2h 7mn
    Overall bit rate : 1 534 Kbps
    Movie name : Ek Thi Daayan (2013)-720p.DVDRip-x264.6Ch-[E-SUB][email protected] [[email protected] Exclusive]


    Video

    Format : AVC
    Format/Info : Advanced Video Codec
    Format profile : [email protected]
    Format settings, CABAC : Yes
    Format settings, ReFrames : 5 frames
    Codec ID : V_MPEG4/ISO/AVC
    Duration : 2h 7mn
    Bit rate : 1 084 Kbps
    Width : 1 280 pixels
    Height : 544 pixels
    Display aspect ratio : 2.35:1
    Frame rate mode : Constant
    Frame rate : 29.970 fps
    Color space : YUV
    Chroma subsampling : 4:2:0
    Bit depth : 8 bits
    Scan type : Progressive
    Bits/(Pixel*Frame) : 0.052
    Stream size : 961 MiB (69%)
    Title : [email protected]
    Writing library : x264 core 130 r2273 b3065e6


    Audio

    Format : AC-3
    Format/Info : Audio Coding 3
    Mode extension : CM (complete main)
    Format settings, Endianness : Big
    Codec ID : A_AC3
    Duration : 2h 7mn
    Bit rate mode : Constant
    Bit rate : 448 Kbps
    Channel(s) : 6 channels
    Channel positions : Front: L C R, Side: L R, LFE
    Sampling rate : 48.0 KHz
    Bit depth : 16 bits
    Compression mode : Lossy
    Stream size : 408 MiB (29%)
    Title : [email protected]
    Language : Hindi













    [ sample ]

    Code:
    http://www.arabloads.com/6oc3zdl0edu2/Ek_Thi_Daayan_(2013)_Sample.mkv.html
    [ subtitle ]

    Code:
    http://www.arabloads.com/rgy0aebbm1lm/Ek_Thi_Daayan_(2013)-720p.DVDRip-x264.6Ch-[E-SUB][email protected]_[[email protected]_Exclusive].srt.html

    [ DOWNLOAD ]


    [ arabloads ]

    Code:
    http://www.arabloads.com/7x2iedl645tt/Ek_Thi_Daayan_(2013)-720p.DVDRip-x264.6Ch-[E-SUB][email protected]_[[email protected]_Exclusive].mkv.html
    [ hugefiles ]

    Code:
    http://hugefiles.net/zwrb9k4g6nad
    [ filesflash ]

    Code:
    http://filesflash.com/ayc2pc8f
    [ speedshare ]

    Code:
    http://speedshare.eu/tzb42t1ua551/Ek_Thi_Daayan_(2013)[email protected][email protected]_Exclusive_5D.mkv.html










 

 

Posting Permissions

  • You may not post new threads
  • You may not post replies
  • You may not post attachments
  • You may not edit your posts
  •