Results 1 to 1 of 1
  1. #1

    Cool Ek Thi Daayan (2013) - 720P - DvdRip - X264 - AC3 (5.1CH) - ESubs - 1.4GB [Team EXD]

    Follow us on Social Media


















    Rip Information

    Format : Matroska
    Format version : Version 4 / Version 2
    File size : 1.36 GiB
    Duration : 2h 7mn
    Overall bit rate : 1 534 Kbps
    Movie name : Ek Thi Daayan (2013)-720p.DVDRip-x264.6Ch-[E-SUB][email protected] [[email protected] Exclusive]


    Video

    Format : AVC
    Format/Info : Advanced Video Codec
    Format profile : [email protected]
    Format settings, CABAC : Yes
    Format settings, ReFrames : 5 frames
    Codec ID : V_MPEG4/ISO/AVC
    Duration : 2h 7mn
    Bit rate : 1 084 Kbps
    Width : 1 280 pixels
    Height : 544 pixels
    Display aspect ratio : 2.35:1
    Frame rate mode : Constant
    Frame rate : 29.970 fps
    Color space : YUV
    Chroma subsampling : 4:2:0
    Bit depth : 8 bits
    Scan type : Progressive
    Bits/(Pixel*Frame) : 0.052
    Stream size : 961 MiB (69%)
    Title : [email protected]
    Writing library : x264 core 130 r2273 b3065e6


    Audio

    Format : AC-3
    Format/Info : Audio Coding 3
    Mode extension : CM (complete main)
    Format settings, Endianness : Big
    Codec ID : A_AC3
    Duration : 2h 7mn
    Bit rate mode : Constant
    Bit rate : 448 Kbps
    Channel(s) : 6 channels
    Channel positions : Front: L C R, Side: L R, LFE
    Sampling rate : 48.0 KHz
    Bit depth : 16 bits
    Compression mode : Lossy
    Stream size : 408 MiB (29%)
    Title : [email protected]
    Language : Hindi


    Code:
    http://www.filefactory.com/file/2kawllagogkj/n/Ek_Thi_Daayan_2013_-720p.DVDRip-x264.6Ch-_E-SUB_-By-K_rtik_K_rtik_Exclusive_.mkv
    
    Subs:
    http://www.filefactory.com/file/5172zr7j4yq9/n/Ek_Thi_Daayan_2013_-720p.DVDRip-x264.6Ch-_E-SUB_-By-K_rtik_K_rtik_Exclusive_.srt
    Code:
    http://rapidgator.net/file/8390afeeec35aa62c73fbcb6a62c9f73/Ek_Thi_Daayan_(2013)-720p.DVDRip-x264.6Ch-[E-SUB][email protected]_[[email protected]_Exclusive].mkv.html
    
    Subs:
    http://rapidgator.net/file/20fcb071c747afda0d43ac8969765b8e/Ek_Thi_Daayan_(2013)-720p.DVDRip-x264.6Ch-[E-SUB][email protected]_[[email protected]_Exclusive].srt.html
    Code:
    http://ul.to/jvc3vqiu
    http://ul.to/bdmxx1qo
    
    Subs:
    http://ul.to/64irk12p
    Code:
    http://ultramegabit.com/file/details/aVH1W3fU9Wk
    http://ultramegabit.com/file/details/KJcmKEQZ3gc
    
    Subs:
    http://ultramegabit.com/file/details/52uVPLB4p4s

 

 

Posting Permissions

  • You may not post new threads
  • You may not post replies
  • You may not post attachments
  • You may not edit your posts
  •