Results 1 to 1 of 1
  1. #1
    Hot Member www.desirulez.net
    Join Date
    Feb 2011
    Location
    Bulletproof IP
    Posts
    1,189

    Default Ek Thi Daayan (2013) - DVDRip - XviD - AC3 5.1 - 700MB - ESubs - [ExD ExclusivE]

    Follow us on Social Media





    Ek Thi Daayan
    (2013)
    DVDRip - XviD - AC3 5.1 - 700MB - ESubs - [ExD ExclusivE]




    Rip Information
    Code:
    Format                                   : AVI
    Format/Info                              : Audio Video Interleave
    File size                                : 659 MiB
    Duration                                 : 2h 7mn
    Overall bit rate                         : 723 Kbps
    Video
    Code:
    Format                                   : MPEG-4 Visual
    Format profile                           : Advanced [email protected]
    Format settings, BVOP                    : 2
    Format settings, QPel                    : No
    Format settings, GMC                     : No warppoints
    Format settings, Matrix                  : Default (MPEG)
    Codec ID                                 : XVID
    Codec ID/Hint                            : XviD
    Duration                                 : 2h 7mn
    Bit rate                                 : 587 Kbps
    Width                                    : 688 pixels
    Height                                   : 288 pixels
    Display aspect ratio                     : 2.40:1
    Frame rate                               : 29.970 fps
    Color space                              : YUV
    Chroma subsampling                       : 4:2:0
    Bit depth                                : 8 bits
    Scan type                                : Progressive
    Compression mode                         : Lossy
    Bits/(Pixel*Frame)                       : 0.099
    Stream size                              : 534 MiB (81%)
    Writing library                          : XviD 1.2.1 (UTC 2008-12-04)
    Audio
    Code:
    Format                                   : AC-3
    Format/Info                              : Audio Coding 3
    Mode extension                           : CM (complete main)
    Format settings, Endianness              : Big
    Codec ID                                 : 2000
    Duration                                 : 2h 7mn
    Bit rate mode                            : Constant
    Bit rate                                 : 128 Kbps
    Channel(s)                               : 6 channels
    Channel positions                        : Front: L C R, Side: L R, LFE
    Sampling rate                            : 48.0 KHz
    Bit depth                                : 16 bits
    Compression mode                         : Lossy
    Stream size                              : 117 MiB (18%)
    Alignment                                : Aligned on interleaves
    Interleave, duration                     : 64 ms (1.92 video frames)
    Interleave, preload duration             : 192 ms
    Title                                    : [email protected]
    ..:creenshots::..














    All Credits Goes To [email protected] @ Team ExD (Thanks)

    Size: 658.87 MB

    Code:
    http://turbobit.net/jsdibnp5sch5/ET-Daayan-DVDRip-XviD-AC3-ExD.avi.html
    or
    http://hugefiles.net/nc3g6r2xufmw
    
    ..::Subtitles::..
    http://hugefiles.net/18pl634wt2wr
    
    ..::Sample::..
    http://hugefiles.net/oluf9n4mbsak

 

 

Posting Permissions

  • You may not post new threads
  • You may not post replies
  • You may not post attachments
  • You may not edit your posts
  •