Results 1 to 1 of 1
  1. #1
    dR Rockers www.desirulez.net
    Join Date
    Aug 2011
    Posts
    5,859

    Cool Ek Thi Daayan (2013) - 720p - DVDRip - x264 - 6Ch - E-SUB - [Kartik Exclusive]

    Follow us on Social Media













    Code:
    Rip Information
    
    Code  Code:
    
    Format                                   : Matroska
    Format version                           : Version 4 / Version 2
    File size                                : 1.36 GiB
    Duration                                 : 2h 7mn
    Overall bit rate                         : 1 534 Kbps
    Movie name                               : Ek Thi Daayan (2013)-720p.DVDRip-x264.6Ch-[E-SUB][email protected] [[email protected] Exclusive]
    
    Video
    
    Code  Code:
    
    Format                                   : AVC
    Format/Info                              : Advanced Video Codec
    Format profile                           : [email protected]
    Format settings, CABAC                   : Yes
    Format settings, ReFrames                : 5 frames
    Codec ID                                 : V_MPEG4/ISO/AVC
    Duration                                 : 2h 7mn
    Bit rate                                 : 1 084 Kbps
    Width                                    : 1 280 pixels
    Height                                   : 544 pixels
    Display aspect ratio                     : 2.35:1
    Frame rate mode                          : Constant
    Frame rate                               : 29.970 fps
    Color space                              : YUV
    Chroma subsampling                       : 4:2:0
    Bit depth                                : 8 bits
    Scan type                                : Progressive
    Bits/(Pixel*Frame)                       : 0.052
    Stream size                              : 961 MiB (69%)
    Title                                    : [email protected]
    Writing library                          : x264 core 130 r2273 b3065e6
    
    Audio
    
    Code  Code:
    
    Format                                   : AC-3
    Format/Info                              : Audio Coding 3
    Mode extension                           : CM (complete main)
    Format settings, Endianness              : Big
    Codec ID                                 : A_AC3
    Duration                                 : 2h 7mn
    Bit rate mode                            : Constant
    Bit rate                                 : 448 Kbps
    Channel(s)                               : 6 channels
    Channel positions                        : Front: L C R, Side: L R, LFE
    Sampling rate                            : 48.0 KHz
    Bit depth                                : 16 bits
    Compression mode                         : Lossy
    Stream size                              : 408 MiB (29%)
    Title                                    : [email protected]
    Language                                 : Hindi


















    SINGLE DIRECT FAST LINKS
    Code:
    http://extabit.com/file/2dud074us6ewp/Ek.Thi.Daayan.(2013).720p.DVDRip.x264.6Ch-[E-SUB].[[email protected]].mkv
    http://extabit.com/file/2dud074untcmx/Ek.Thi.Daayan.(2013).720p.DVDRip.x264.6Ch-[E-SUB].[[email protected]].srt
    Code:
    http://lumfile.com/4jgl6sby0csu/Ek.Thi.Daayan.(2013).720p.DVDRip.x264.6Ch-[E-SUB].[[email protected]].mkv.html
    http://lumfile.com/k50oyzye6sfw/Ek.Thi.Daayan.(2013).720p.DVDRip.x264.6Ch-[E-SUB].[[email protected]].srt.html

 

 

Tags for this Thread

Posting Permissions

  • You may not post new threads
  • You may not post replies
  • You may not post attachments
  • You may not edit your posts
  •