Results 1 to 1 of 1
  1. #1
    Hot Member www.desirulez.net
    Join Date
    Feb 2013
    Posts
    1,015

    Thumbs up Ek Thi Daayan (2013).1CD.DVDRip. XviD.Ac.5.1.By [email protected] [ExD ExclusivE]

    Follow us on Social Media





    Ek Thi Daayan (2013).1CD.DVDRip. XviD.Ac.5.1.By [email protected] [ExD ExclusivE]



    Rip Information

    Format : AVI
    Format/Info : Audio Video Interleave
    File size : 659 MiB
    Duration : 2h 7mn
    Overall bit rate : 723 Kbps


    Video

    Format : MPEG-4 Visual
    Format profile : Advanced [email protected]
    Format settings, BVOP : 2
    Format settings, QPel : No
    Format settings, GMC : No warppoints
    Format settings, Matrix : Default (MPEG)
    Codec ID : XVID
    Codec ID/Hint : XviD
    Duration : 2h 7mn
    Bit rate : 587 Kbps
    Width : 688 pixels
    Height : 288 pixels
    Display aspect ratio : 2.40:1
    Frame rate : 29.970 fps
    Color space : YUV
    Chroma subsampling : 4:2:0
    Bit depth : 8 bits
    Scan type : Progressive
    Compression mode : Lossy
    Bits/(Pixel*Frame) : 0.099
    Stream size : 534 MiB (81%)
    Writing library : XviD 1.2.1 (UTC 2008-12-04)


    Audio 1

    Format : AC-3
    Format/Info : Audio Coding 3
    Mode extension : CM (complete main)
    Format settings, Endianness : Big
    Codec ID : 2000
    Duration : 2h 7mn
    Bit rate mode : Constant
    Bit rate : 128 Kbps
    Channel(s) : 6 channels
    Channel positions : Front: L C R, Side: L R, LFE
    Sampling rate : 48.0 KHz
    Bit depth : 16 bits
    Compression mode : Lossy
    Stream size : 117 MiB (18%)
    Alignment : Aligned on interleaves
    Interleave, duration : 64 ms (1.92 video frames)
    Interleave, preload duration : 192 ms
    Title : [email protected]













    [ subtitle ]

    Code:
    http://www.arabloads.com/hcodvpxu8ldw/Ek_Thi_Daayan_2013.1CD.DVDRip._XviD.Ac.5.1.By_Krtik_ExD_ExclusivE.srt.html

    [ DOWNLOAD ]


    [ arabloads ]

    Code:
    http://www.arabloads.com/xm4vzsm07on3/Ek_Thi_Daayan_2013.1CD.DVDRip._XviD.Ac.5.1.By_Krtik_ExD_ExclusivE.avi.html
    [ hugefiles ]

    Code:
    http://hugefiles.net/2yfmdm14irco
    [ speedshare ]

    Code:
    http://speedshare.eu/x46j8bd1n4hl/Ek_Thi_Daayan_2013.1CD.DVDRip._XviD.Ac.5.1.By_Krtik_ExD_ExclusivE.avi.html
    [ filesflash ]

    Code:
    http://filesflash.com/bdef85gy










 

 

Posting Permissions

  • You may not post new threads
  • You may not post replies
  • You may not post attachments
  • You may not edit your posts
  •