Results 1 to 1 of 1
  1. #1
    Super Member www.desirulez.net
    Join Date
    Apr 2013
    Posts
    211

    Cool Aashiqui 2 (2013) 720p DVDRip x264 6Ch [E-SUB] By [email protected] [EXD-Exclusive]

    Follow us on Social Media





    Aashiqui 2 (2013) 720p DVDRip x264 6Ch [E-SUB] By [email protected] [EXD-Exclusive]




    Code:
    Rip Information
    
    Format                                   : Matroska
    Format version                           : Version 4 / Version 2
    File size                                : 1.36 GiB
    Duration                                 : 2h 14mn
    Overall bit rate                         : 1 452 Kbps
    Movie name                               : Aashiqui 2 (2013)-720p.DVDRip-x264.6Ch-[E-SUB][email protected] [[email protected] Exclusive]
    Encoded date                             : UTC 2013-06-04 13:30:27
    
    Video
    
    Format                                   : AVC
    Format/Info                              : Advanced Video Codec
    Format profile                           : [email protected]
    Format settings, CABAC                   : Yes
    Format settings, ReFrames                : 5 frames
    Codec ID                                 : V_MPEG4/ISO/AVC
    Duration                                 : 2h 14mn
    Bit rate                                 : 1 002 Kbps
    Width                                    : 1 280 pixels
    Height                                   : 544 pixels
    Display aspect ratio                     : 2.35:1
    Frame rate mode                          : Constant
    Frame rate                               : 29.970 fps
    Color space                              : YUV
    Chroma subsampling                       : 4:2:0
    Bit depth                                : 8 bits
    Scan type                                : Progressive
    Bits/(Pixel*Frame)                       : 0.048
    Stream size                              : 938 MiB (67%)
    Title                                    : [email protected]
    Writing library                          : x264 core 130 r2273 b3065e6
    
    Audio
    
    Format                                   : AC-3
    Format/Info                              : Audio Coding 3
    Mode extension                           : CM (complete main)
    Format settings, Endianness              : Big
    Codec ID                                 : A_AC3
    Duration                                 : 2h 14mn
    Bit rate mode                            : Constant
    Bit rate                                 : 448 Kbps
    Channel(s)                               : 6 channels
    Channel positions                        : Front: L C R, Side: L R, LFE
    Sampling rate                            : 48.0 KHz
    Bit depth                                : 16 bits
    Compression mode                         : Lossy
    Stream size                              : 431 MiB (31%)
    Title                                    : [email protected]
    Language                                 : Hindi













    ENGLISH SUBS.
    Code:
    http://sanshare.com/td12zsjicvd5/Aashiqui_2_2013_DVD_Rip__x264_6CH_1.4GB_Kartik_ExD.srt.html

    SINGLE LINKS
    Code:
    http://sanshare.com/eoowfo0dv6l6/Aashiqui_2_2013_DVD_Rip__x264_6CH_1.4GB_Kartik_ExD.mkv.html
    http://speedshare.eu/6wltvjt6l76n/Aashiqui_2_2013_DVD_Rip__x264_6CH_1.4GB_Kartik_ExD.mkv.html
    SPLIT LINKS 02 X 750MB

    Code:
    http://sanshare.com/ar89e8ro6fgi/Aashiqui_2_2013_DVD_Rip__x264_6CH_1.4GB_Kartik_ExD.mkv.001.html
    http://sanshare.com/faw0bdam48uv/Aashiqui_2_2013_DVD_Rip__x264_6CH_1.4GB_Kartik_ExD.mkv.002.html

    Code:
    http://ultramegabit.com/file/details/2TASAADJmDs
    http://ultramegabit.com/file/details/xmZS7UCYTt4

    Code:
    http://speedshare.eu/pxeusxfjiup3/Aashiqui_2_2013_DVD_Rip__x264_6CH_1.4GB_Kartik_ExD.mkv.001.html
    http://speedshare.eu/1d54f43vxl1z/Aashiqui_2_2013_DVD_Rip__x264_6CH_1.4GB_Kartik_ExD.mkv.002.html

    USE HJSPLIT / FFSJ OR SIMILAR SOFTWARE TO JOIN [ .001 ] TYPES OF FILES... THANK YOU!

 

 

Posting Permissions

  • You may not post new threads
  • You may not post replies
  • You may not post attachments
  • You may not edit your posts
  •