Results 1 to 1 of 1
  1. #1
    Hot Member www.desirulez.net
    Join Date
    Feb 2013
    Posts
    1,015

    Thumbs up Kasam.1988.DvDrip.1CD.X264.AAC.RRG.DADA

    Follow us on Social Media





    Kasam.1988.DvDrip.1CD.X264.AAC.RRG.DADA






    Complete name : Kasam ( 1988 )
    Format : mp4
    Format/Info : Audio Video Interleave
    File size : 1.22 GiB
    Duration : 2h 46mn
    Overall bit rate : 1 140 Kbps

    Video
    ID : 0
    Format : MPEG-4 Visual
    Format profile : [email protected]
    Format settings, BVOP : No
    Format settings, QPel : No
    Format settings, GMC : No warppoints
    Format settings, Matrix : Default (H.263)
    Codec ID : XVID
    Codec ID/Hint : XviD
    Duration : 2h 46mn
    Bit rate : 745 Kbps
    Width : 720 pixels
    Height : 368 pixels
    Display aspect ratio : 1.957
    Frame rate : 23.976 fps
    Color space : YUV
    Chroma subsampling : 4:2:0
    Bit depth : 8 bits
    Scan type : Progressive
    Compression mode : Lossy
    Bits/(Pixel*Frame) : 0.117
    Stream size : 889 MiB (65%)
    Writing library : XviD 1.1.2 (UTC 2006-11-01)

    Audio
    ID : 1
    Format : AC-3
    Format/Info : Audio Coding 3
    Mode extension : CM (complete main)
    Codec ID : 2000
    Duration : 2h 46mn
    Bit rate mode : Constant
    Bit rate : 384 Kbps
    Channel(s) : 6 channels
    Channel positions : Front: L C R, Side: L R, LFE
    Sampling rate : 48.0 KHz
    Bit depth : 16 bits
    Compression mode : Lossy
    Stream size : 458 MiB (34%)
    Alignment : Aligned on interleaves
    Interleave, duration : 32 ms (0.77 video frame)
    Interleave, preload duration : 1056 ms

















    [ DOWNLOAD ]


    [ arabloads ]

    Code:
    http://www.arabloads.com/v02xmr5m7lra/Kasam.1988.DvDrip.1CD.X264.AAC.RRG.mp4.html
    [ hugefiles ]

    Code:
    http://hugefiles.net/e1da89nicv0o
    [ filesflash ]

    Code:
    http://filesflash.com/oxx6ncbu










 

 

Posting Permissions

  • You may not post new threads
  • You may not post replies
  • You may not post attachments
  • You may not edit your posts
  •