Results 1 to 1 of 1
  1. #1

    Cool Aashiqui 2 (2013) - 1CD - DvdRip - XviD - AC3 (5.1CH) - ESubs [Team EXD]

    Follow us on Social Media














    Rip Information

    Code:
    Format : AVI
    Format/Info : Audio Video Interleave
    File size : 650 MiB
    Duration : 2h 14mn
    Overall bit rate : 676 Kbps
    Video

    Code:
    Format : MPEG-4 Visual
    Format profile : Advanced [email protected]
    Format settings, BVOP : 2
    Format settings, QPel : No
    Format settings, GMC : No warppoints
    Format settings, Matrix : Default (MPEG)
    Codec ID : XVID
    Codec ID/Hint : XviD
    Duration : 2h 14mn
    Bit rate : 539 Kbps
    Width : 688 pixels
    Height : 288 pixels
    Display aspect ratio : 2.40:1
    Frame rate : 29.970 fps
    Color space : YUV
    Chroma subsampling : 4:2:0
    Bit depth : 8 bits
    Scan type : Progressive
    Compression mode : Lossy
    Bits/(Pixel*Frame) : 0.091
    Stream size : 519 MiB (80%)
    Writing library : XviD 1.2.1 (UTC 2008-12-04)
    Audio 1

    Code:
    Format : AC-3
    Format/Info : Audio Coding 3
    Mode extension : CM (complete main)
    Format settings, Endianness : Big
    Codec ID : 2000
    Duration : 2h 14mn
    Bit rate mode : Constant
    Bit rate : 128 Kbps
    Channel(s) : 6 channels
    Channel positions : Front: L C R, Side: L R, LFE
    Sampling rate : 48.0 KHz
    Bit depth : 16 bits
    Compression mode : Lossy
    Stream size : 123 MiB (19%)
    Alignment : Aligned on interleaves
    Interleave, duration : 64 ms (1.92 video frames)


    Code:
    http://rapidgator.net/file/ecb049614914048cf945b16c0fca5ec7/Aashiqui_2_(2013).[email protected]_[ExD_ExclusivE].avi.html
    
    Subs:
    http://rapidgator.net/file/9eabbb0fb29c65ce7ba882a15cc13215/Aashiqui_2_(2013).[email protected]_[ExD_ExclusivE].srt.html
    Code:
    http://ul.to/54m1zf2v
    
    Subs:
    http://ul.to/cqqlmwk7
    Code:
    http://ultramegabit.com/file/details/_AHkCG5vu74
    
    Subs:
    http://ultramegabit.com/file/details/IIAQoghkj6o

 

 

Posting Permissions

  • You may not post new threads
  • You may not post replies
  • You may not post attachments
  • You may not edit your posts
  •