Results 1 to 2 of 2
  1. #1

    Cool Aashiqui 2 (2013) - 720P - DvdRip - X264 - AC3 (5.1CH) - ESubs [Team EXD]

    Follow us on Social Media

















    Rip Information

    Format : Matroska
    Format version : Version 4 / Version 2
    File size : 1.36 GiB
    Duration : 2h 14mn
    Overall bit rate : 1 452 Kbps
    Movie name : Aashiqui 2 (2013)-720p.DVDRip-x264.6Ch-[E-SUB][email protected] [[email protected] Exclusive]
    Encoded date : UTC 2013-06-04 13:30:27


    Video

    Format : AVC
    Format/Info : Advanced Video Codec
    Format profile : [email protected]
    Format settings, CABAC : Yes
    Format settings, ReFrames : 5 frames
    Codec ID : V_MPEG4/ISO/AVC
    Duration : 2h 14mn
    Bit rate : 1 002 Kbps
    Width : 1 280 pixels
    Height : 544 pixels
    Display aspect ratio : 2.35:1
    Frame rate mode : Constant
    Frame rate : 29.970 fps
    Color space : YUV
    Chroma subsampling : 4:2:0
    Bit depth : 8 bits
    Scan type : Progressive
    Bits/(Pixel*Frame) : 0.048
    Stream size : 938 MiB (67%)
    Title : [email protected]
    Writing library : x264 core 130 r2273 b3065e6


    Audio

    Format : AC-3
    Format/Info : Audio Coding 3
    Mode extension : CM (complete main)
    Format settings, Endianness : Big
    Codec ID : A_AC3
    Duration : 2h 14mn
    Bit rate mode : Constant
    Bit rate : 448 Kbps
    Channel(s) : 6 channels
    Channel positions : Front: L C R, Side: L R, LFE
    Sampling rate : 48.0 KHz
    Bit depth : 16 bits
    Compression mode : Lossy
    Stream size : 431 MiB (31%)
    Title : [email protected]
    Language : Hindi


    Code:
    http://rapidgator.net/file/d6e7e5cf90c4e3c8eca1e2cee265e33d/Aashiqui_2_(2013)-720p.DVDRip-x264.6Ch-[E-SUB][email protected]_[[email protected]_Exclusive].mkv.html
    
    Subs:
    http://rapidgator.net/file/a142e55309ffc2f32ec36086c7cf447e/Aashiqui_2_(2013)-720p.DVDRip-x264.6Ch-[E-SUB][email protected]_[[email protected]_Exclusive].srt.html
    Code:
    http://ul.to/u1arxu0e
    http://ul.to/jvqc88y7
    
    Subs:
    http://ul.to/n7rsga37
    Code:
    http://ultramegabit.com/file/details/U4GQaSExHo0
    http://ultramegabit.com/file/details/YHnPnxPfjkE
    
    Subs:
    http://ultramegabit.com/file/details/vpcxw1emwP4

  2. #2

    Default

    i need to ask kartik yaar wo thoda jyada sharpen kar deta he

 

 

Posting Permissions

  • You may not post new threads
  • You may not post replies
  • You may not post attachments
  • You may not edit your posts
  •