Results 1 to 2 of 2
  1. #1
    Hot Member www.desirulez.net
    Join Date
    Feb 2013
    Posts
    1,015

    Thumbs up Aap Aye Bahaar Ayee (1971) DVDRip x264 AC3 Esub [RRG DBB][DADA]

    Follow us on Social Media





    Aap Aye Bahaar Ayee (1971) DVDRip x264 AC3 Esub [RRG DBB][DADA]



    -: Info :-


    General

    Format : Matroska
    File size : 699 MiB
    Duration : 2h 8mn
    Overall bit rate : 759 Kbps
    Encoded date : UTC 2012-03-22 18:03:44
    Writing library : libebml v1.2.3 + libmatroska v1.3.0

    Video
    ID : 1
    Format : AVC
    Format/Info : Advanced Video Codec
    Format profile : [email protected]
    Format settings, CABAC : Yes
    Format settings, ReFrames : 4 frames
    Muxing mode : Container [email protected]
    Codec ID : V_MPEG4/ISO/AVC
    Duration : 2h 8mn
    Bit rate : 692 Kbps
    Width : 640 pixels
    Height : 432 pixels
    Display aspect ratio : 3:2
    Frame rate : 23.976 fps
    Color space : YUV
    Chroma subsampling : 4:2:0
    Bit depth : 8 bits
    Scan type : Progressive
    Bits/(Pixel*Frame) : 0.104
    Stream size : 626 MiB (90%)
    Title : Team ExDR
    Writing library : x264 core 120 r2164 da19765

    Audio
    ID : 2
    Format : AC-3
    Format/Info : Audio Coding 3
    Mode extension : CM (complete main)
    Codec ID : A_AC3
    Duration : 2h 8mn
    Bit rate mode : Constant
    Bit rate : 64.0 Kbps
    Channel(s) : 2 channels
    Channel positions : Front: L R
    Sampling rate : 48.0 KHz
    Bit depth : 16 bits
    Stream size : 58.9 MiB (8%)
    Title : Team ExDR
    Language : Hindi

    Text
    ID : 3
    Format : VobSub
    Codec ID : S_VOBSUB
    Codec ID/Info : The same subtitle format used on DVDs
    Ripper-EXD

    http://www.imdb.com/title/tt0178192/


    Directed by
    Mohan Kumar

    Writing credits
    (in alphabetical order)
    Mohan Kumar written by
    Ved Rahi dialogue
    Ram Swarup assistant dialogue

    Cast (in credits order) verified as complete
    Rajendra Kumar ... Rohit Kumar Verma (as Rajinder Kumar)
    Sadhana ... Neena Bakshi
    Prem Chopra ... Kumar
    Rajendra Nath ... Whiskey (as Rajinder Nath)
    Bobby
    Raj Mehra ... Bakshi (Neena's dad)
    Mumtaz Begum ... Rohit's mom
    Meena T. ... Rasilee
    Kamaldeep ... Manager (as Kamal Deep)
    Madhu Apte
    June
    Subhash (as Subhash)
    Sarita Devi
    Kodi S. Irani (as Khodu Baba)
    Surendra (as Surinder)
    Prem Kumar
    Lamba
    Raj Kumar
    Shaikh
    Uma Khosla
    Master Rohit


    Rohit, Whiskey, and Kumar (Rajendra Kumar, Rajendra Nath, and Prem Chopra respectively) are childhood friends. While travelling to his estate in the company of Whiskey, Rohit meets with beautiful Neena (Sadhana), and falls in love with her. Subsequently, he meets with her father (Raj Mehra) where they are properly introduced, and she too falls in love with him. Unknowingly, Kumar also sends his proposal for marriage to Neena, but Neena rejects it. Kumar is offended and shortly before the marriage of Neena and Rohit, molests Neena. Rohit and Kumar become enemies, have a fight and Kumar loses sight in his left eye. Feeling that she is not worthly of Rohit anymore, Neena refuses to marry Rohit. Will Rohit and Neena ever get together again? Will they continue to be haunted by Kumar?






    [ sample ]

    Code:
    http://www.arabloads.com/cgzeeiuu2yha/Sample.Aap.Aye.Bahaar.Ayee.1971.DVDRip.x264.AC3.ESub.mkv.html

    [ DOWNLOAD ]


    [ arabloads ]

    Code:
    http://www.arabloads.com/h2oj04r7um9y/Aap.Aye.Bahaar.Ayee.1971.DVDRip.x264.AC3.mkv.html
    [ hugefiles ]

    Code:
    http://hugefiles.net/kyrmwk24nz32
    [ filesflash ]

    Code:
    http://filesflash.com/1672ji4l










  2. #2

    Default

    thanks for filesflash

 

 

Posting Permissions

  • You may not post new threads
  • You may not post replies
  • You may not post attachments
  • You may not edit your posts
  •