Results 1 to 1 of 1
  1. #1
    Hot Member www.desirulez.net
    Join Date
    Feb 2013
    Posts
    1,015

    Thumbs up Commando (2013)-720p.DVDRip-x264.6Ch-[E-SUB][email protected] [[email protected] Exclusive]

    Follow us on Social Media





    Commando (2013)-720p.DVDRip-x264.6Ch-[E-SUB][email protected] [[email protected] Exclusive]



    Rip Information

    Code:
    Format : Matroska
    Format version : Version 4 / Version 2
    File size : 1.46 GiB
    Duration : 2h 4mn
    Overall bit rate : 1 680 Kbps
    Movie name : Commando (2013)-720p.DVDRip-x264.6Ch-[E-SUB][email protected] [[email protected] Exclusive]


    Video Code:
    Format : AVC
    Format/Info : Advanced Video Codec
    Format profile : [email protected]
    Format settings, CABAC : Yes
    Format settings, ReFrames : 5 frames
    Codec ID : V_MPEG4/ISO/AVC
    Duration : 2h 4mn
    Bit rate : 1 231 Kbps
    Width : 1 280 pixels
    Height : 560 pixels
    Display aspect ratio : 2.25:1
    Frame rate mode : Constant
    Frame rate : 23.976 fps
    Color space : YUV
    Chroma subsampling : 4:2:0
    Bit depth : 8 bits
    Scan type : Progressive
    Bits/(Pixel*Frame) : 0.072
    Stream size : 1.04 GiB (71%)
    Title : [email protected]
    Writing library : x264 core 130 r2273 b3065e6
    Encoding settings : cabac=1 / ref=5 / deblock=1:0:0 /


    Audio
    Code:
    Format : AC-3
    Format/Info : Audio Coding 3
    Mode extension : CM (complete main)
    Format settings, Endianness : Big
    Codec ID : A_AC3
    Duration : 2h 4mn
    Bit rate mode : Constant
    Bit rate : 448 Kbps
    Channel(s) : 6 channels
    Channel positions : Front: L C R, Side: L R, LFE
    Sampling rate : 48.0 KHz
    Bit depth : 16 bits
    Compression mode : Lossy
    Delay relative to video : 350ms
    Stream size : 399 MiB (27%)
    Title : [email protected]
    Language : Hindi













    [ subtitle ]

    Code:
    http://www.arabloads.com/onohhep0wcek/Commando_(2013)-720p.DVDRip-x264.6Ch-[E-SUB][email protected]_[[email protected]_Exclusive].srt.html

    [ DOWNLOAD ]


    [ arabloads ]

    Code:
    http://www.arabloads.com/ijnprhby4q6c/Commando_(2013)-720p.DVDRip-x264.6Ch-[E-SUB][email protected]_[[email protected]_Exclusive].mkv.html
    [ hugefiles ]

    Code:
    http://hugefiles.net/lbgj5fa2or4y
    [ filesflash ]

    Code:
    http://filesflash.com/58cxqbb7










 

 

Posting Permissions

  • You may not post new threads
  • You may not post replies
  • You may not post attachments
  • You may not edit your posts
  •