Results 1 to 1 of 1
  1. #1

    Cool Commando (2013) - 720P - DvdRip - X264 - AC3 - ESubs - 1.4GB [Team EXD]

    Follow us on Social Media

















    Rip Information

    ]Format : Matroska
    Format version : Version 4 / Version 2
    File size : 1.46 GiB
    Duration : 2h 4mn
    Overall bit rate : 1 680 Kbps
    Movie name : Commando (2013)-720p.DVDRip-x264.6Ch-[E-SUB][email protected] [[email protected] Exclusive]


    Video

    Format : AVC
    Format/Info : Advanced Video Codec
    Format profile : [email protected]
    Format settings, CABAC : Yes
    Format settings, ReFrames : 5 frames
    Codec ID : V_MPEG4/ISO/AVC
    Duration : 2h 4mn
    Bit rate : 1 231 Kbps
    Width : 1 280 pixels
    Height : 560 pixels
    Display aspect ratio : 2.25:1
    Frame rate mode : Constant
    Frame rate : 23.976 fps
    Color space : YUV
    Chroma subsampling : 4:2:0
    Bit depth : 8 bits
    Scan type : Progressive
    Bits/(Pixel*Frame) : 0.072
    Stream size : 1.04 GiB (71%)
    Title : [email protected]
    Writing library : x264 core 130 r2273 b3065e6
    Encoding settings : cabac=1 / ref=5 / deblock=1:0:0 /


    Audio

    Format : AC-3
    Format/Info : Audio Coding 3
    Mode extension : CM (complete main)
    Format settings, Endianness : Big
    Codec ID : A_AC3
    Duration : 2h 4mn
    Bit rate mode : Constant
    Bit rate : 448 Kbps
    Channel(s) : 6 channels
    Channel positions : Front: L C R, Side: L R, LFE
    Sampling rate : 48.0 KHz
    Bit depth : 16 bits
    Compression mode : Lossy
    Delay relative to video : 350ms
    Stream size : 399 MiB (27%)
    Title : [email protected]
    Language : Hindi


    Code:
    http://rapidgator.net/file/36ee1d632b9489356f382d2787bbbe70/Commando_(2013)-720p.DVDRip-x264.6Ch-[E-SUB][email protected]_[[email protected]_Exclusive].mkv.html
    
    Subs:
    http://rapidgator.net/file/45979c3d3d03b46ca90e80c87e23b7b7/Commando_(2013)-720p.DVDRip-x264.6Ch-[E-SUB][email protected]_[[email protected]_Exclusive].srt.html
    Code:
    http://ul.to/scb3x09t
    http://ul.to/40ddg8wp
    
    Subs:
    http://ul.to/fzipoumf
    Code:
    http://ultramegabit.com/file/details/3yZYK-Mdkqc
    http://ultramegabit.com/file/details/XNrJUlecXzQ
    
    Subs:
    http://ultramegabit.com/file/details/m0gBhaUw-i8

 

 

Posting Permissions

  • You may not post new threads
  • You may not post replies
  • You may not post attachments
  • You may not edit your posts
  •