Results 1 to 1 of 1
  1. #1

    Cool Texas Chainsaw (2013) 720P BRRip X264 [Dual Audio] [Hindi+English] [ExD Exclusive]

    Follow us on Social Media














    Rip Information

    ]Format : Matroska
    Format version : Version 4 / Version 2
    File size : 745 MiB
    Duration : 1h 31mn
    Overall bit rate : 1 136 Kbps
    Movie name : Texas.Chainsaw.(2013).720p.[Dual Audio] [Hindi+English].by [email protected] [ExD Exclusive]


    Video

    Format : AVC
    Format/Info : Advanced Video Codec
    Format profile : [email protected]
    Format settings, CABAC : Yes
    Format settings, ReFrames : 5 frames
    Codec ID : V_MPEG4/ISO/AVC
    Duration : 1h 31mn
    Bit rate : 782 Kbps
    Width : 1 280 pixels
    Height : 544 pixels
    Display aspect ratio : 2.35:1
    Frame rate mode : Constant
    Frame rate : 23.976 fps
    Color space : YUV
    Chroma subsampling : 4:2:0
    Bit depth : 8 bits
    Scan type : Progressive
    Bits/(Pixel*Frame) : 0.047
    Stream size : 499 MiB (67%)
    Title : [email protected]
    Writing library : x264 core 130 r2273 b3065e6


    Audio 1

    Format : AC-3
    Format/Info : Audio Coding 3
    Mode extension : CM (complete main)
    Format settings, Endianness : Big
    Codec ID : A_AC3
    Duration : 1h 31mn
    Bit rate mode : Constant
    Bit rate : 128 Kbps
    Channel(s) : 2 channels
    Channel positions : Front: L R
    Sampling rate : 48.0 KHz
    Bit depth : 16 bits
    Compression mode : Lossy
    Stream size : 84.0 MiB (11%)
    Title : [email protected]
    Language : English


    Audio 2

    Format : MPEG Audio
    Format version : Version 1
    Format profile : Layer 2
    Codec ID : A_MPEG/L2
    Codec ID/Hint : MP2
    Duration : 1h 31mn
    Bit rate mode : Constant
    Bit rate : 224 Kbps
    Channel(s) : 2 channels
    Sampling rate : 44.1 KHz
    Compression mode : Lossy
    Delay relative to video : 15s 0ms
    Stream size : 147 MiB (20%)
    Title : [email protected]
    Language : Hindi
    Default : Yes


    Code:
    http://rapidgator.net/file/86f4b664aca17fb8f369051dd42b52af/Texas.Chainsaw.(2013).720p.[Dual_Audio]_[Hindi_English].[email protected]_[ExD_Exclusive].mkv.html
    
    Subs:
    http://rapidgator.net/file/a477075062538cbd6fb5647629c65ad5/Texas.Chainsaw.(2013).720p.[Dual_Audio]_[Hindi_English].[email protected]_[ExD_Exclusive].srt.html
    Code:
    http://ul.to/qouqr43e
    
    Subs:
    http://ul.to/mavccloa
    Code:
    http://ultramegabit.com/file/details/nlJYt9_5sk4
    
    Subs:
    http://ultramegabit.com/file/details/3TvAKgQ9BLk

 

 

Posting Permissions

  • You may not post new threads
  • You may not post replies
  • You may not post attachments
  • You may not edit your posts
  •