Results 1 to 1 of 1
  1. #1
    Hot Member www.desirulez.net
    Join Date
    Feb 2013
    Posts
    1,015

    Thumbs up Double Family [2012] Full Comedy Stage Drama - 1 CDRip - x264 - AC3 - [Team ExDE$ Exclusive]

    Follow us on Social Media









    Star Cast

    Ifthkar Tehkar ----- Payal Choudhry
    Soni ----- Nawaz Anjum
    Zafri Khan ----- Amanat Chan
    Tariq Tedi


    Audio - Video Info

    Complete name : Double Faimly [2012] Full Comedy Stage Drama - 1 CDRip - x264 - AC3 - [Team ExDE$ Exclusive]
    Format : Matroska
    Format version : Version 4 / Version 2
    File size : 659 MiB
    Duration : 1h 44mn
    Overall bit rate : 879 Kbp
    Encoded date : UTC 2013-05-28 15:53:53
    Writing application : mkvmerge v6.2.0 ('Promised Land') built on Apr 28 2013 12:22:01
    Writing library : libebml v1.3.0 + libmatroska v1.4.0

    Video
    ID : 1
    Format : AVC
    Format/Info : Advanced Video Codec
    Format profile : [email protected]
    Format settings, CABAC : Yes
    Format settings, ReFrames : 4 frames
    Codec ID : V_MPEG4/ISO/AVC
    Duration : 1h 44mn
    Bit rate : 669 Kbps
    Width : 352 pixels
    Height : 288 pixels
    Display aspect ratio : 1.222
    Frame rate mode : Constant
    Frame rate : 25.000 fps
    Standard : PAL
    Color space : YUV
    Chroma subsampling : 4:2:0
    Bit depth : 8 bits
    Scan type : Progressive
    Bits/(Pixel*Frame) : 0.264
    Stream size : 502 MiB (76%)
    Title : Team ExDe$ Exclusive
    Writing library : x264 core 122 r2184bm 5c85e0a
    Language : Panjabi
    Default : Yes
    Forced : No

    Audio
    ID : 2
    Format : AC-3
    Format/Info : Audio Coding 3
    Mode extension : CM (complete main)
    Format settings, Endianness : Big
    Codec ID : A_AC3
    Duration : 1h 44mn
    Bit rate mode : Constant
    Bit rate : 192 Kbps
    Channel(s) : 2 channels
    Channel positions : Front: L R
    Sampling rate : 48.0 KHz
    Bit depth : 16 bits
    Compression mode : Lossy
    Stream size : 144 MiB (22%)
    Title : -=Rana.Aqib786=- Team ExDe$ Exclusive
    Language : Panjabi
    Default : Yes
    Forced : No





    [ sample ]

    Code:
    http://www.arabloads.com/gdwzj93v04rn/Sample.mkv.html

    [ DOWNLOAD ]


    [ arabloads ]

    Code:
    http://www.arabloads.com/pdv8kg92k5oc/Double_Faimly_[2012]_Full_Comedy_Stage_Drama_-_1_CDRip_-_x264_-_AC3_-_[Team_ExDE$_Exclusive].mkv.html
    [ hugefiles ]

    Code:
    http://hugefiles.net/0q0zmr6wussd
    [ filesflash ]

    Code:
    http://filesflash.com/wiha67pt










 

 

Posting Permissions

  • You may not post new threads
  • You may not post replies
  • You may not post attachments
  • You may not edit your posts
  •