Results 1 to 1 of 1
  1. #1
    Hot Member www.desirulez.net
    Join Date
    Feb 2013
    Posts
    1,015

    Thumbs up Saheb Biwi Aur Gangster Returns (2013) - BDRip - x264 - AC3 - SAP [DDR-ExclusivE]

    Follow us on Social Media





    Saheb Biwi Aur Gangster Returns (2013) - BDRip - x264 - AC3 - SAP [DDR-ExclusivE]

    Saheb Biwi Aur Gangster Returns
    **480p / BDRip / x264 / AC3**
    Compatible with XBOX 360, PlayStation 3 & HDTV
    Subs: English




    General
    Complete name : sap-saheb-biwi-2-bdrip-x264-ac3-ddr.mp4
    Format : MPEG-4
    Format profile : Base Media
    Codec ID : isom
    File size : 1.36 GiB
    Duration : 2h 22mn
    Overall bit rate : 1 363 Kbps
    Encoded date : UTC 2013-05-26 09:11:23
    Tagged date : UTC 2013-05-26 09:11:23
    Writing application : Yamb 2.1.0.0 [http://yamb.unite-video.com]
    Copyright : DDR

    Video
    ID : 1
    Format : AVC
    Format/Info : Advanced Video Codec
    Format profile : [email protected]
    Format settings, CABAC : Yes
    Format settings, ReFrames : 4 frames
    Codec ID : avc1
    Codec ID/Info : Advanced Video Coding
    Duration : 2h 22mn
    Bit rate : 1 136 Kbps
    Maximum bit rate : 8 595 Kbps
    Width : 848 pixels
    Height : 368 pixels
    Display aspect ratio : 2.35:1
    Frame rate mode : Constant
    Frame rate : 24.000 fps
    Color space : YUV
    Chroma subsampling : 4:2:0
    Bit depth : 8 bits
    Scan type : Progressive
    Bits/(Pixel*Frame) : 0.152
    Stream size : 1.13 GiB (83%)
    Title : SBG2 BDRip SAP [DDR]
    Encoded date : UTC 2013-05-26 03:56:09
    Tagged date : UTC 2013-05-26 09:13:13
    Color primaries : BT.709-5, BT.1361, IEC 61966-2-4, SMPTE RP177
    Transfer characteristics : BT.709-5, BT.1361
    Matrix coefficients : BT.709-5, BT.1361, IEC 61966-2-4 709, SMPTE RP177

    Audio
    ID : 2
    Format : AC-3
    Format/Info : Audio Coding 3
    Mode extension : CM (complete main)
    Format settings, Endianness : Big
    Codec ID : ac-3
    Duration : 2h 22mn
    Bit rate mode : Constant
    Bit rate : 224 Kbps
    Channel(s) : 2 channels
    Channel positions : Front: L R
    Sampling rate : 48.0 KHz
    Bit depth : 16 bits
    Compression mode : Lossy
    Delay relative to video : -3ms
    Stream size : 228 MiB (16%)
    Title : 5.1 AC3 [DDR]
    Encoded date : UTC 2013-05-26 09:13:01
    Tagged date : UTC 2013-05-26 09:13:13





    [ subtitle ]

    Code:
    http://www.arabloads.com/tzxz45wbn5c1/en-sap-saheb-biwi-2-bdrip-x264-ac3-ddr.srt.html
    [ sample ]

    Code:
    http://www.arabloads.com/4qvwjv32ypk4/smpl-sap-saheb-biwi-2-bdrip-x264-ac3-ddr.mp4.html

    [ DOWNLOAD ]


    [ arabloads ]

    Code:
    http://www.arabloads.com/g7n8miw26rqb/sap-saheb-biwi-2-bdrip-x264-ac3-ddr.mp4.html
    [ hugefiles ]

    Code:
    http://hugefiles.net/gi1qv4jcl29z
    [ filesflash ]

    Code:
    http://filesflash.com/18nhym2d


 

 

Posting Permissions

  • You may not post new threads
  • You may not post replies
  • You may not post attachments
  • You may not edit your posts
  •