Results 1 to 1 of 1
  1. #1
    dR Rockers www.desirulez.net
    Join Date
    Aug 2011
    Posts
    5,859

    Cool Aurangzeb (2013) - Untouched - NTSC - DVDscr - DDD

    Follow us on Social Media












    Code:
    Duration :- 2h 12mn 33Sec
    
    
    General
    Format : MPEG-PS
    File size : 3.95 GiB
    Duration : 2h 12mn
    Overall bit rate : 4 261 Kbps
    
    Video
    ID : 224 (0xE0)
    Format : MPEG Video
    Format version : Version 2
    Format profile : [email protected]
    Format settings, BVOP : Yes
    Format settings, Matrix : Custom
    Format settings, GOP : M=3, N=15
    Duration : 2h 12mn
    Bit rate : 4 000 Kbps
    Width : 720 pixels
    Height : 576 pixels
    Display aspect ratio : 4:3
    Frame rate : 25.000 fps
    Standard : PAL
    Color space : YUV
    Chroma subsampling : 4:2:0
    Bit depth : 8 bits
    Compression mode : Lossy
    Bits/(Pixel*Frame) : 0.386
    Stream size : 3.69 GiB (94%)
    
    Audio
    ID : 189 (0xBD)-128 (0x80)
    Format : AC-3
    Format/Info : Audio Coding 3
    Mode extension : CM (complete main)
    Format settings, Endianness : Big
    Muxing mode : DVD-Video
    Duration : 2h 12mn
    Bit rate mode : Constant
    Bit rate : 192 Kbps
    Channel(s) : 2 channels
    Channel positions : Front: L R
    Sampling rate : 48.0 KHz
    Bit depth : 16 bits
    Compression mode : Lossy
    Stream size : 182 MiB (5%)














    SINGLE DIRECT FAST LINKS
    Code:
    http://extabit.com/file/2dud0ame907uk/Aurangzeb.(2013).DVDScr.MPEG.mpg
    Code:
    http://lumfile.com/dffz4ls0y3g2/Aurangzeb.(2013).DVDScr.MPEG.mpg.html

    1GB LINKS

    Code:
    http://extabit.com/file/2dud0ame90hcc/Aurangzeb.(2013).DVDScr.MPEG.part1.rar
    http://extabit.com/file/2dud0ame90h8c/Aurangzeb.(2013).DVDScr.MPEG.part2.rar
    http://extabit.com/file/2dud0ame90h7w/Aurangzeb.(2013).DVDScr.MPEG.part3.rar
    http://extabit.com/file/2dud0ame90e64/Aurangzeb.(2013).DVDScr.MPEG.part4.rar

    Code:
    http://lumfile.com/x4q4b2fucoxm/Aurangzeb.(2013).DVDScr.MPEG.part1.rar.html
    http://lumfile.com/meybmcxise5n/Aurangzeb.(2013).DVDScr.MPEG.part2.rar.html
    http://lumfile.com/sdaaretrou5l/Aurangzeb.(2013).DVDScr.MPEG.part3.rar.html
    http://lumfile.com/qlu4ox04x495/Aurangzeb.(2013).DVDScr.MPEG.part4.rar.html

 

 

Posting Permissions

  • You may not post new threads
  • You may not post replies
  • You may not post attachments
  • You may not edit your posts
  •