Results 1 to 1 of 1
  1. #1
    Super Member www.desirulez.net
    Join Date
    Apr 2013
    Posts
    211

    Cool AurangZaib (2013) - 480p - PDVD - RiP - X264 - AC3 - 500MB - Exclusive Release

    Follow us on Social Media





    AurangZaib (2013) - 480p - PDVD - RiP - X264 - AC3 - 500MB - Exclusive Release




    IMBD: http://www.imdb.com/title/tt2804026/

    Story: A cop goes undercover into a gangster's family as his son. This sets in place a chain reaction of complications and increasingly uncontrollable events.

    Director: Atul Sabharwal
    Writer: Atul Sabharwal (script)
    Stars: Arjun Kapoor, Prithviraj Sukumaran, Rishi Kapoor
    SOURCE: PDVDr - NTSC - Team ICFG (Special ThankS)

    Format : Matroska
    Format version : Version 4 / Version 2
    File size : 521 MiB
    Duration : 2h 0mn
    Overall bit rate : 603 Kbps
    Movie name : -=Mr.Khan=-
    Encoded date : UTC 2013-05-20 15:51:06
    Writing application : mkvmerge v6.2.0 ('Promised Land') built on Apr 28 2013 12:22:01
    Writing library : libebml v1.3.0 + libmatroska v1.4.0

    Video
    ID : 1
    Format : AVC
    Format/Info : Advanced Video Codec
    Format profile : [email protected]
    Format settings, CABAC : Yes
    Format settings, ReFrames : 4 frames
    Codec ID : V_MPEG4/ISO/AVC
    Duration : 2h 0mn
    Bit rate : 538 Kbps
    Width : 720 pixels
    Height : 304 pixels
    Display aspect ratio : 1.941
    Original display aspect ratio : 1.939
    Frame rate mode : Constant
    Frame rate : 29.970 fps
    Color space : YUV
    Chroma subsampling : 4:2:0
    Bit depth : 8 bits
    Scan type : Progressive
    Bits/(Pixel*Frame) : 0.082
    Stream size : 455 MiB (87%)
    Title : -=Mr.Khan=-
    Writing library : x264 core 132 r2273
    Language : Hindi
    Default : Yes
    Forced : No

    Audio
    ID : 2
    Format : AC-3
    Format/Info : Audio Coding 3
    Mode extension : CM (complete main)
    Format settings, Endianness : Big
    Codec ID : A_AC3
    Duration : 2h 0mn
    Bit rate mode : Constant
    Bit rate : 64.0 Kbps
    Channel(s) : 2 channels
    Channel positions : Front: L R
    Sampling rate : 48.0 KHz
    Bit depth : 16 bits
    Compression mode : Lossy
    Stream size : 55.3 MiB (11%)
    Title : -=Mr.Khan=-
    Language : Hindi
    Default : Yes
    Forced : No








    Code:
    http://sanshare.com/jiv1098rhqmm/AurangZaib_2013_480p_X264_AC3_500MB.mkv.html

    Code:
    http://ultramegabit.com/file/details/1I5eNT2AP7o

    Code:
    http://speedshare.eu/84bo8dzld7bw.html

    Code:
    http://filezy.net/udp9j3d8g31f/AurangZaib_2013_480p_PDVD_RiP_X264_AC3_500MB.mkv.html

 

 

Posting Permissions

  • You may not post new threads
  • You may not post replies
  • You may not post attachments
  • You may not edit your posts
  •