Results 1 to 1 of 1
  1. #1
    Hot Member www.desirulez.net
    Join Date
    Feb 2013
    Posts
    1,015

    Default Disco Bazar [2012] - Full Comedy Stage Show - VCDRip - x264 - AC3 - 500MB - [Team ExDE$ Exclusive]

    Follow us on Social Media





    Disco Bazar [2012] - Full Comedy Stage Show - VCDRip - x264 - AC3 - 500MB - [Team ExDE$ Exclusive]



    Star Cast

    Ifthkar Tehkar ----- Deedar
    Naseem Vicky ----- Nasir chunouti
    Zafri Khan ----- Saima Khan
    Asif Iqbal ----- Sajan Abbas





    Complete name : Disco Bazar [2012] - Full Comedy Stage Show - VCDRip - x264 - AC3 - 500MB -=Rana.Aqib786=- [ExDE$ Exclusive]
    Format : Matroska
    Format version : Version 4 / Version 2
    File size : 469 MiB
    Duration : 1h 30mn
    Overall bit rate : 726 Kbps
    Movie name : Team ExDE$ Exclusive
    Writing application : mkvmerge v6.2.0 ('Promised Land') built on Apr 28 2013 12:22:01
    Writing library : libebml v1.3.0 + libmatroska v1.4.0

    Video
    ID : 1
    Format : AVC
    Format/Info : Advanced Video Codec
    Format profile : [email protected]
    Format settings, CABAC : Yes
    Format settings, ReFrames : 4 frames
    Codec ID : V_MPEG4/ISO/AVC
    Duration : 1h 30mn
    Bit rate : 519 Kbps
    Width : 352 pixels
    Height : 288 pixels
    Display aspect ratio : 1.222
    Frame rate mode : Constant
    Frame rate : 25.000 fps
    Standard : PAL
    Color space : YUV
    Chroma subsampling : 4:2:0
    Bit depth : 8 bits
    Scan type : Progressive
    Bits/(Pixel*Frame) : 0.205
    Stream size : 336 MiB (72%)
    Title : -=Rana.Aqib786=-
    Writing library : x264 core 122 r2184bm 5c85e0a
    Language : Panjabi
    Default : Yes
    Forced : No

    Audio
    ID : 2
    Format : AC-3
    Format/Info : Audio Coding 3
    Mode extension : CM (complete main)
    Format settings, Endianness : Big
    Codec ID : A_AC3
    Duration : 1h 30mn
    Bit rate mode : Constant
    Bit rate : 192 Kbps
    Channel(s) : 2 channels
    Channel positions : Front: L R
    Sampling rate : 48.0 KHz
    Bit depth : 16 bits
    Compression mode : Lossy
    Stream size : 124 MiB (26%)
    Title : -=Rana.Aqib786=-
    Language : Panjabi
    Default : Yes
    Forced : No







    sample
    Code:
    http://www.arabloads.com/bg1ychq08h64


    download



    Code:
    http://www.arabloads.com/lg61dww3760s



    Code:
    http://filesflash.com/45818g56



 

 

Posting Permissions

  • You may not post new threads
  • You may not post replies
  • You may not post attachments
  • You may not edit your posts
  •