Results 1 to 1 of 1
  1. #1
    Super Member www.desirulez.net
    Join Date
    Apr 2013
    Posts
    211

    Default Ghagra - Yeh Jawaani Hai Deewani (2013) Official Video Song - AC3 - 5.1 - 1080p HD

    Follow us on Social Media





    Ghagra - Yeh Jawaani Hai Deewani (2013) Official Video Song - AC3 - 5.1 - 1080p HD




    Code:
    General
    Complete name                            : Ghagra - Yeh Jawaani Hai Deewani (2013) Official Video Song - AC3 - 5.1 - 1080p HD.mp4
    Format                                   : MPEG-4
    Format profile                           : Base Media
    Codec ID                                 : isom
    File size                                : 178 MiB
    Duration                                 : 3mn 7s
    Overall bit rate                         : 7 941 Kbps
    Movie name                               : Ghagra
    Album                                    : Yeh Jawaani Hai Deewani
    Performer                                : AFIQUR
    Recorded date                            : 2013
    
    Video
    ID                                       : 1
    Format                                   : AVC
    Format/Info                              : Advanced Video Codec
    Format profile                           : [email protected]
    Format settings, CABAC                   : No
    Format settings, ReFrames                : 2 frames
    Format settings, GOP                     : M=1, N=12
    Codec ID                                 : avc1
    Codec ID/Info                            : Advanced Video Coding
    Duration                                 : 3mn 7s
    Bit rate                                 : 7 625 Kbps
    Width                                    : 1 920 pixels
    Height                                   : 1 080 pixels
    Display aspect ratio                     : 16:9
    Frame rate mode                          : Constant
    Frame rate                               : 25.000 fps
    Standard                                 : PAL
    Color space                              : YUV
    Chroma subsampling                       : 4:2:0
    Bit depth                                : 8 bits
    Scan type                                : Progressive
    Bits/(Pixel*Frame)                       : 0.147
    Stream size                              : 171 MiB (96%)
    
    Audio
    ID                                       : 2
    Format                                   : AC-3
    Format/Info                              : Audio Coding 3
    Mode extension                           : CM (complete main)
    Format settings, Endianness              : Big
    Codec ID                                 : ac-3
    Duration                                 : 3mn 7s
    Bit rate mode                            : Constant
    Bit rate                                 : 320 Kbps
    Channel(s)                               : 6 channels
    Channel positions                        : Front: L C R, Side: L R, LFE
    Sampling rate                            : 48.0 KHz
    Bit depth                                : 16 bits
    Compression mode                         : Lossy
    Stream size                              : 7.17 MiB (4%)




















    Code:
    http://sanshare.com/o25jzilkufz3/Ghagra_-_Yeh_Jawaani_Hai_Deewani_-_Ranbir_Kapoor_Madhuri_Dixit_-_1080p_HD_5.1CH.mp4.html

    Code:
    http://www.ultramegabit.com/file/details/bBxA_SqDMWc

 

 

Posting Permissions

  • You may not post new threads
  • You may not post replies
  • You may not post attachments
  • You may not edit your posts
  •