Results 1 to 1 of 1
  1. #1
    Super Member www.desirulez.net
    Join Date
    Apr 2013
    Posts
    211

    Default Jeene Laga Hoon - Ramaiya Vastavaiya (2013) Official Video Song - x264 - AC3 - 720P & 1080P

    Follow us on Social Media





    (Atif Aslam) Jeene Laga Hoon - Ramaiya Vastavaiya (2013) Official Video Song - 720P - x264 - AC3 - 63MiB




    Code:
    Format                                   : Matroska
    Format version                           : Version 4 / Version 2
    File size                                : 62.7 MiB
    Duration                                 : 2mn 7s
    Overall bit rate                         : 4 138 Kbps
    Movie name                               : -=Mr.Khan=-
    Encoded date                             : UTC 2013-05-13 10:15:54
    Writing application                      : mkvmerge v6.0.0 ('Coming Up For Air') built on Jan 20 2013 09:52:00
    Writing library                          : libebml v1.3.0 + libmatroska v1.4.0
    
    Video
    ID                                       : 1
    Format                                   : AVC
    Format/Info                              : Advanced Video Codec
    Format profile                           : [email protected]
    Format settings, CABAC                   : Yes
    Format settings, ReFrames                : 2 frames
    Codec ID                                 : V_MPEG4/ISO/AVC
    Duration                                 : 2mn 7s
    Bit rate                                 : 3 861 Kbps
    Width                                    : 1 280 pixels
    Height                                   : 720 pixels
    Display aspect ratio                     : 2.35:1
    Original display aspect ratio            : 2.35:1
    Frame rate mode                          : Constant
    Frame rate                               : 25.000 fps
    Color space                              : YUV
    Chroma subsampling                       : 4:2:0
    Bit depth                                : 8 bits
    Scan type                                : Progressive
    Bits/(Pixel*Frame)                       : 0.168
    Stream size                              : 58.6 MiB (93%)
    Title                                    : -=Mr.Khan=-
    Writing library                          : x264 core 130 r2273
    Language                                 : Hindi
    Default                                  : Yes
    Forced                                   : No
    
    Audio
    ID                                       : 2
    Format                                   : AC-3
    Format/Info                              : Audio Coding 3
    Mode extension                           : CM (complete main)
    Format settings, Endianness              : Big
    Codec ID                                 : A_AC3
    Duration                                 : 2mn 7s
    Bit rate mode                            : Constant
    Bit rate                                 : 192 Kbps
    Channel(s)                               : 2 channels
    Channel positions                        : Front: L R
    Sampling rate                            : 48.0 KHz
    Bit depth                                : 16 bits
    Compression mode                         : Lossy
    Delay relative to video                  : -5ms
    Stream size                              : 2.91 MiB (5%)
    Title                                    : -=Mr.Khan=-
    Language                                 : Hindi
    Default                                  : Yes
    Forced                                   : No






    Jeene_Laga_Hoon_-_Ramaiya_Vastavaiya_(2013)_720p_Official_Video_Girish_Kumar_&_Shruti_Haasan.mkv - 62.7 MB

    Jeene_Laga_Hoon_-_Ramaiya_Vastavaiya_(2013)_720p_Official_Video 62.70 MB


    (Atif Aslam) Jeene Laga Hoon - Ramaiya Vastavaiya (2013) Official Video Song - 1080P - x264 - AC3 - 80MiB

    Code:
    Format                                   : Matroska
    Format version                           : Version 4 / Version 2
    File size                                : 80.0 MiB
    Duration                                 : 2mn 7s
    Overall bit rate                         : 5 282 Kbps
    Encoded date                             : UTC 2013-05-13 10:12:47
    Writing application                      : mkvmerge v6.0.0 ('Coming Up For Air') built on Jan 20 2013 09:52:00
    Writing library                          : libebml v1.3.0 + libmatroska v1.4.0
    
    Video
    ID                                       : 1
    Format                                   : AVC
    Format/Info                              : Advanced Video Codec
    Format profile                           : [email protected]
    Format settings, CABAC                   : Yes
    Format settings, ReFrames                : 2 frames
    Codec ID                                 : V_MPEG4/ISO/AVC
    Duration                                 : 2mn 7s
    Bit rate                                 : 4 987 Kbps
    Width                                    : 1 920 pixels
    Height                                   : 1 080 pixels
    Display aspect ratio                     : 2.35:1
    Original display aspect ratio            : 2.35:1
    Frame rate mode                          : Constant
    Frame rate                               : 25.000 fps
    Color space                              : YUV
    Chroma subsampling                       : 4:2:0
    Bit depth                                : 8 bits
    Scan type                                : Progressive
    Bits/(Pixel*Frame)                       : 0.096
    Stream size                              : 75.5 MiB (94%)
    Title                                    : -=Mr.Khan=-
    Writing library                          : x264 core 130 r2273
    Language                                 : Hindi
    Default                                  : Yes
    Forced                                   : No
    
    Audio
    ID                                       : 2
    Format                                   : AC-3
    Format/Info                              : Audio Coding 3
    Mode extension                           : CM (complete main)
    Format settings, Endianness              : Big
    Codec ID                                 : A_AC3
    Duration                                 : 2mn 7s
    Bit rate mode                            : Constant
    Bit rate                                 : 192 Kbps
    Channel(s)                               : 2 channels
    Channel positions                        : Front: L R
    Sampling rate                            : 48.0 KHz
    Bit depth                                : 16 bits
    Compression mode                         : Lossy
    Delay relative to video                  : -5ms
    Stream size                              : 2.91 MiB (4%)
    Title                                    : -=Mr.Khan=-
    Language                                 : Hindi
    Default                                  : Yes
    Forced                                   : No






    Jeene_Laga_Hoon_-_Ramaiya_Vastavaiya_(2013)_Official_Video_1080p_Girish_Kumar_&_Shruti_Haasan.mkv - 80.0 MB

    Jeene_Laga_Hoon_-_Ramaiya_Vastavaiya_(2013)_Official_Video_1080p 80.04 MB

 

 

Posting Permissions

  • You may not post new threads
  • You may not post replies
  • You may not post attachments
  • You may not edit your posts
  •