Results 1 to 1 of 1
  1. #1
    Hot Member www.desirulez.net
    Join Date
    Feb 2013
    Posts
    1,015

    Thumbs up Disco Deewane [2013] Full Comedy Stage Drama - VCDRip - x264 - AC3 [Team ExDE$ Xclusive]

    Follow us on Social Media





    Disco Deewane [2013] Full Comedy Stage Drama - VCDRip - x264 - AC3 [Team ExDE$ Xclusive]



    [ NFO ]

    Complete name : Disco Deewane [2013] Full Comedy Stage Drama - VCDRip - x264 - AC3 [Team ExDE$ Xclusive].mkv
    Format : Matroska
    Format version : Version 4 / Version 2
    File size : 634 MiB
    Duration : 1h 42mn
    Overall bit rate : 866 Kbps
    Movie name : Xclusive From Team ExDE$ -=Rana.Aqib786=-
    Writing application : mkvmerge v6.2.0 ('Promised Land') built on Apr 28 2013 12:22:01
    Writing library : libebml v1.3.0 + libmatroska v1.4.0

    Video
    ID : 1
    Format : AVC
    Format/Info : Advanced Video Codec
    Format profile : [email protected]
    Format settings, CABAC : Yes
    Format settings, ReFrames : 4 frames
    Codec ID : V_MPEG4/ISO/AVC
    Duration : 1h 42mn
    Bit rate : 625 Kbps
    Width : 352 pixels
    Height : 288 pixels
    Display aspect ratio : 1.222
    Frame rate mode : Constant
    Frame rate : 25.000 fps
    Standard : PAL
    Color space : YUV
    Chroma subsampling : 4:2:0
    Bit depth : 8 bits
    Scan type : Progressive
    Bits/(Pixel*Frame) : 0.247
    Stream size : 457 MiB (72%)
    Title : [Team ExDE$] -=Rana.Aqib786=-
    Language : Panjabi
    Default : Yes
    Forced : No

    Audio
    ID : 2
    Format : AC-3
    Format/Info : Audio Coding 3
    Mode extension : CM (complete main)
    Format settings, Endianness : Big
    Codec ID : A_AC3
    Duration : 1h 42mn
    Bit rate mode : Constant
    Bit rate : 224 Kbps
    Channel(s) : 2 channels
    Channel positions : Front: L R
    Sampling rate : 48.0 KHz
    Bit depth : 16 bits
    Compression mode : Lossy
    Stream size : 164 MiB (26%)
    Title : [Team ExDE$] -=Rana.Aqib786=-
    Language : Panjabi



    Star Cast




    [ SCREEN ]



    [ sample ]

    Code:
    http://www.arabloads.com/l7gsj0lsdjtq/Sample.mkv.html
    [ DOWNLOAD ]


    [ arabloads ]

    Code:
    http://www.arabloads.com/t3pmhbrcqnde/Disco_Deewane_[2013]_Full_Comedy_Stage_Drama_-_VCDRip_-_x264_-_AC3_[Team_ExDE$_Xclusive].mkv.html
    [ filesflash ]

    Code:
    http://filesflash.com/fropfd0o

    [ hugefiles ]

    Code:
    http://hugefiles.net/buv6ngmdjffe






 

 

Posting Permissions

  • You may not post new threads
  • You may not post replies
  • You may not post attachments
  • You may not edit your posts
  •