Results 1 to 1 of 1
  1. #1
    Super Member www.desirulez.net
    Join Date
    Apr 2013
    Posts
    211

    Cool Jolly LLB (2013)-720p.DVDRip-x264.6Ch-[E-SUB]-By-Kartik [Kartik Exclusive]

    Follow us on Social Media





    Jolly LLB (2013)-720p.DVDRip-x264.6Ch-[E-SUB]-By-Kartik [Kartik Exclusive]




    Code:
    Format                                   : Matroska
    Format version                           : Version 4 / Version 2
    File size                                : 1.56 GiB
    Duration                                 : 2h 8mn
    Overall bit rate                         : 1 737 Kbps
    Encoded date                             : UTC 2013-05-10 06:58:34
    Writing application                      : mkvmerge v6.1.0 ('Old Devil') built on Mar  2 2013 14:32:37
    
    Format                                   : AVC
    Format/Info                              : Advanced Video Codec
    Format profile                           : [email protected]
    Format settings, CABAC                   : Yes
    Format settings, ReFrames                : 5 frames
    Codec ID                                 : V_MPEG4/ISO/AVC
    Duration                                 : 2h 8mn
    Bit rate                                 : 1 287 Kbps
    Width                                    : 1 280 pixels
    Height                                   : 588 pixels
    Display aspect ratio                     : 2.2:1
    Frame rate mode                          : Constant
    Frame rate                               : 29.970 fps
    Color space                              : YUV
    Chroma subsampling                       : 4:2:0
    Bit depth                                : 8 bits
    Scan type                                : Progressive
    Bits/(Pixel*Frame)                       : 0.057
    Stream size                              : 1.13 GiB (72%)
    Title                                    : [email protected]
    Writing library                          : x264 core 130 r2273 b3065e6
    Format                                   : AC-3
    Format/Info                              : Audio Coding 3
    Mode extension                           : CM (complete main)
    Format settings, Endianness              : Big
    Codec ID                                 : A_AC3
    Duration                                 : 2h 8mn
    Bit rate mode                            : Constant
    Bit rate                                 : 448 Kbps
    Channel(s)                               : 6 channels
    Channel positions                        : Front: L C R, Side: L R, LFE
    Sampling rate                            : 48.0 KHz
    Bit depth                                : 16 bits
    Compression mode                         : Lossy
    Stream size                              : 412 MiB (26%)
    Title                                    : [email protected]
    Language                                 : Hindi













    SAMPLE
    Code:
    http://sanshare.com/5ref92m235pl/Jolly_LLB_(2013)-Sample.mkv.html
    ESUBS
    Code:
    http://sanshare.com/il5q31ffr666/Jolly_LLB_2013_720p_DVDRip_x264_6Ch_E-SUB_Kartik_Exclusive.srt.html



    Code:
    http://sanshare.com/l7pm2g3ngwf0/Jolly_LLB_2013_720p_DVDRip_x264_6Ch_E-SUB_Kartik_Exclusive.mkv.001.html
    http://sanshare.com/ga0s5sx6gs0i/Jolly_LLB_2013_720p_DVDRip_x264_6Ch_E-SUB_Kartik_Exclusive.mkv.002.html
    http://sanshare.com/s556i21crzpc/Jolly_LLB_2013_720p_DVDRip_x264_6Ch_E-SUB_Kartik_Exclusive.mkv.003.html

    Code:
    http://speedshare.eu/u1eo6l9rk976.html
    http://speedshare.eu/tnptt1ztdye6.html
    http://speedshare.eu/enjhw9h4qig8.html

    Code:
    http://ultramegabit.com/file/details/FwoU5qCqSSI
    http://ultramegabit.com/file/details/QadgyTP83Ao
    http://ultramegabit.com/file/details/VSleL10YJRE

    Code:
    http://filezy.net/dqadm3iq3x29/Jolly_LLB_2013_720p_DVDRip_x264_6Ch_E-SUB_Kartik_Exclusive.mkv.html
    Code:
    http://filezy.net/5kwo3p8qzoma/Jolly_LLB_2013_720p_DVDRip_x264_6Ch_E-SUB_Kartik_Exclusive.mkv.001.html
    http://filezy.net/2bo0iypohncj/Jolly_LLB_2013_720p_DVDRip_x264_6Ch_E-SUB_Kartik_Exclusive.mkv.002.html
    http://filezy.net/xv7ydho5v3ky/Jolly_LLB_2013_720p_DVDRip_x264_6Ch_E-SUB_Kartik_Exclusive.mkv.003.html

    USE HJSPLIT / FFSJ OR SIMILAR SOFTWARE TO JOIN [ .001 ] TYPES OF FILES... THANK YOU!

 

 

Posting Permissions

  • You may not post new threads
  • You may not post replies
  • You may not post attachments
  • You may not edit your posts
  •