Results 1 to 1 of 1
  1. #1

    Cool Go Goa Gone (2013) - Untouched - HD SCAM [Team EXD]

    Follow us on Social Media







    Format : MPEG-PS
    File size : 708 MiB
    Duration : 1h 38mn
    Overall bit rate mode : Variable
    Overall bit rate : 1 009 Kbps

    Video
    ID : 224 (0xE0)
    Format : MPEG Video
    Format version : Version 2
    Format profile : [email protected]
    Format settings, BVOP : Yes
    Format settings, Matrix : Default
    Format settings, GOP : M=3, N=13
    Duration : 1h 38mn
    Bit rate mode : Variable
    Bit rate : 861 Kbps
    Maximum bit rate : 9 672 Kbps
    Width : 352 pixels
    Height : 288 pixels
    Display aspect ratio : 4:3
    Frame rate : 25.000 fps
    Standard : PAL
    Color space : YUV
    Chroma subsampling : 4:2:0
    Bit depth : 8 bits
    Scan type : Progressive
    Compression mode : Lossy
    Bits/(Pixel*Frame) : 0.340
    Stream size : 604 MiB (85%)

    Audio
    ID : 192 (0xC0)
    Format : MPEG Audio
    Format version : Version 1
    Format profile : Layer 2
    Duration : 1h 38mn
    Bit rate mode : Constant
    Bit rate : 128 Kbps
    Channel(s) : 2 channels
    Sampling rate : 48.0 KHz
    Compression mode : Lossy
    Stream size : 89.8 MiB (13%)


    Code:
    http://rapidgator.net/file/485b57b8ba90b08a01aa6f3f77d4512f/VTS_01_1.VOB.html
    
    http://lumfile.com/eaxrg83db3oj/VTS_01_1.VOB.html
    
    http://ul.to/cgs5k4jv
    
    http://ultramegabit.com/file/details/YSyK9pUa1VU

 

 

Posting Permissions

  • You may not post new threads
  • You may not post replies
  • You may not post attachments
  • You may not edit your posts
  •