Results 1 to 1 of 1
  1. #1

    Cool Gippi (2013) - Untouched - HD SCAM - 544MB - MPEG [DDD]

    Follow us on Social Media







    General
    Format : MPEG-PS
    File size : 544 MiB
    Duration : 1h 28mn
    Overall bit rate mode : Variable
    Overall bit rate : 855 Kbps

    Video
    ID : 224 (0xE0)
    Format : MPEG Video
    Format version : Version 2
    Format profile : [email protected]
    Format settings, BVOP : Yes
    Format settings, Matrix : Default
    Format settings, GOP : M=3, N=13
    Duration : 1h 28mn
    Bit rate mode : Variable
    Bit rate : 710 Kbps
    Maximum bit rate : 9 672 Kbps
    Width : 352 pixels
    Height : 288 pixels
    Display aspect ratio : 4:3
    Frame rate : 25.000 fps
    Standard : PAL
    Color space : YUV
    Chroma subsampling : 4:2:0
    Bit depth : 8 bits
    Scan type : Progressive
    Compression mode : Lossy
    Bits/(Pixel*Frame) : 0.280
    Stream size : 452 MiB (83%)

    Audio
    ID : 192 (0xC0)
    Format : MPEG Audio
    Format version : Version 1
    Format profile : Layer 2
    Duration : 1h 28mn
    Bit rate mode : Constant
    Bit rate : 128 Kbps
    Channel(s) : 2 channels
    Sampling rate : 48.0 KHz
    Compression mode : Lossy
    Stream size : 81.4 MiB (15%)


    Code:
    http://rapidgator.net/file/9e9c3a5b29c747b0441f621394d90615/'Gippi'-2013-_SCam_Rip_-_MPEG.VOB.html
    
    http://lumfile.com/l2lvk43ty5yg/'Gippi'-2013-_SCam_Rip_-_MPEG.VOB.html
    
    http://ul.to/bdnv9ezd
    
    http://ultramegabit.com/file/details/c5xfgZTZ_BY

 

 

Posting Permissions

  • You may not post new threads
  • You may not post replies
  • You may not post attachments
  • You may not edit your posts
  •