Results 1 to 1 of 1
  1. #1
    Hot Member www.desirulez.net
    Join Date
    Sep 2009
    Posts
    1,215

    Thumbs up Go Goa Gone (2013) HD-SCAM NTSC [TEAM ExDR ExClusive]

    Follow us on Social Media










    Code:
    Format                                   : MPEG-PS
    File size                                : 708 MiB
    Duration                                 : 1h 38mn
    Overall bit rate mode                    : Variable
    Overall bit rate                         : 1 009 Kbps
    
    Video
    ID                                       : 224 (0xE0)
    Format                                   : MPEG Video
    Format version                           : Version 2
    Format profile                           : [email protected]
    Format settings, BVOP                    : Yes
    Format settings, Matrix                  : Default
    Format settings, GOP                     : M=3, N=13
    Duration                                 : 1h 38mn
    Bit rate mode                            : Variable
    Bit rate                                 : 861 Kbps
    Maximum bit rate                         : 9 672 Kbps
    Width                                    : 352 pixels
    Height                                   : 288 pixels
    Display aspect ratio                     : 4:3
    Frame rate                               : 25.000 fps
    Standard                                 : PAL
    Color space                              : YUV
    Chroma subsampling                       : 4:2:0
    Bit depth                                : 8 bits
    Scan type                                : Progressive
    Compression mode                         : Lossy
    Bits/(Pixel*Frame)                       : 0.340
    Stream size                              : 604 MiB (85%)
    
    Audio
    ID                                       : 192 (0xC0)
    Format                                   : MPEG Audio
    Format version                           : Version 1
    Format profile                           : Layer 2
    Duration                                 : 1h 38mn
    Bit rate mode                            : Constant
    Bit rate                                 : 128 Kbps
    Channel(s)                               : 2 channels
    Sampling rate                            : 48.0 KHz
    Compression mode                         : Lossy
    Stream size                              : 89.8 MiB (13%)




    Code:
    http://letitbit.net/download/84057.83d4caf3844c44c5010bb03eb3e5/Go_Goa_Gone_%282013%29_HD-SCAM_NTSC__TEAM_ExDR_ExClusive_.rar.html
    
    http://vip-file.com/downloadlib/777509315760106033-84057.83d4caf3844c44c5010bb03eb3e5/Go_Goa_Gone_%282013%29_HD-SCAM_NTSC__TEAM_ExDR_ExClusive_.rar.html
    
    http://hugefiles.net/uv1bocxz076w
    
    http://ul.to/rlvxtbch
    
    http://turbobit.net/ot4inuuwnfrx/Go Goa Gone (2013) HD-SCAM NTSC [TEAM ExDR ExClusive].rar.html





 

 

Posting Permissions

  • You may not post new threads
  • You may not post replies
  • You may not post attachments
  • You may not edit your posts
  •