Results 1 to 1 of 1
  1. #1
    Hot Member www.desirulez.net
    Join Date
    Feb 2013
    Posts
    1,015

    Thumbs up Gippi (2013) HD SCAM NTSC [Team ExDR ExClusive]

    Follow us on Social Media





    Gippi (2013) HD SCAM NTSC [Team ExDR ExClusive]



    [ NFO ]

    Format : MPEG-PS
    File size : 544 MiB
    Duration : 1h 28mn
    Overall bit rate mode : Variable
    Overall bit rate : 855 Kbps

    Video
    ID : 224 (0xE0)
    Format : MPEG Video
    Format version : Version 2
    Format profile : [email protected]
    Format settings, BVOP : Yes
    Format settings, Matrix : Default
    Format settings, GOP : M=3, N=13
    Duration : 1h 28mn
    Bit rate mode : Variable
    Bit rate : 710 Kbps
    Maximum bit rate : 9 672 Kbps
    Width : 352 pixels
    Height : 288 pixels
    Display aspect ratio : 4:3
    Frame rate : 25.000 fps
    Standard : PAL
    Color space : YUV
    Chroma subsampling : 4:2:0
    Bit depth : 8 bits
    Scan type : Progressive
    Compression mode : Lossy
    Bits/(Pixel*Frame) : 0.280
    Stream size : 452 MiB (83%)

    Audio
    ID : 192 (0xC0)
    Format : MPEG Audio
    Format version : Version 1
    Format profile : Layer 2
    Duration : 1h 28mn
    Bit rate mode : Constant
    Bit rate : 128 Kbps
    Channel(s) : 2 channels
    Sampling rate : 48.0 KHz
    Compression mode : Lossy
    Stream size : 81.4 MiB (15%)


    [ SCREEN ]




    [ DOWNLOAD ]


    [ arabloads ]

    Code:
    http://www.arabloads.com/fln6wp6u8i20
    [ hugefiles ]

    Code:
    http://hugefiles.net/kfuqci2wjmzc
    [ lumfile ]

    Code:
    http://lumfile.com/xl8msbw4f76m
    [ filesflash ]

    Code:
    http://filesflash.com/hibwj9dk





 

 

Posting Permissions

  • You may not post new threads
  • You may not post replies
  • You may not post attachments
  • You may not edit your posts
  •