Results 1 to 1 of 1
  1. #1
    dR Rockers www.desirulez.net
    Join Date
    Jun 2011
    Posts
    2,793

    Thumbs up Kai Po Che 2013 DVDRip - Xvid Mp3 - [1CD] - Team IcTv Avi 700Mb

    Follow us on Social Media









    Video
    ID : 0
    Format : MPEG-4 Visual
    Format profile : Advanced [email protected]
    Format settings, BVOP : 2
    Format settings, QPel : Yes
    Format settings, GMC : No warppoints
    Format settings, Matrix : Default (H.263)
    Codec ID : XVID
    Codec ID/Hint : XviD
    Duration : 2h 5mn
    Bit rate : 694 Kbps
    Width : 640 pixels
    Height : 272 pixels
    Display aspect ratio : 2.35:1
    Frame rate : 23.976 fps
    Color space : YUV
    Chroma subsampling : 4:2:0
    Bit depth : 8 bits
    Scan type : Progressive
    Compression mode : Lossy
    Bits/(Pixel*Frame) : 0.166
    Stream size : 622 MiB (89%)
    Writing library : XviD 1.2.1 (UTC 2008-12-04)

    Audio
    ID : 1
    Format : MPEG Audio
    Format version : Version 1
    Format profile : Layer 3
    Mode : Joint stereo
    Mode extension : MS Stereo
    Codec ID : 55
    Codec ID/Hint : MP3
    Duration : 2h 5mn
    Bit rate mode : Constant
    Bit rate : 80.0 Kbps
    Channel(s) : 2 channels
    Sampling rate : 32.0 KHz
    Compression mode : Lossy
    Stream size : 71.8 MiB (10%)
    Alignment : Aligned on interleaves
    Interleave, duration : 36 ms (0.86 video frame)
    Interleave, preload duration : 216 ms
    Title : VTS_02_1 T81 2_0ch 224Kbps DELAY 0ms
    Writing library : LAME3.99r
    Ripper : Master Mind










    Code:
    http://speedshare.eu/2c0s7yllg1gl/KPCheictv.avi.html
    
    http://sanshare.com/omth124vlzf6/KPCheictv.avi.html
    
    http://www.arabloads.com/eoxp93740umi/KPCheictv.avi.html



 

 

Posting Permissions

  • You may not post new threads
  • You may not post replies
  • You may not post attachments
  • You may not edit your posts
  •