Results 1 to 1 of 1
  1. #1
    Hot Member www.desirulez.net
    Join Date
    Feb 2013
    Posts
    1,015

    Thumbs up Yeh Dil Maange More - Hindi Play 2012 [TMB] (ExDe$)

    Follow us on Social Media





    Yeh Dil Maange More - Hindi Play 2012 [TMB] (ExDe$)








    [ NFO ]

    Info -
    Yeh Dil Maange More a famous hindi comedy stage play, originally written by Kedar Shinde in Marathi, adapted and directed by Paritosh Painter and Presented by Kaustub Trivedi and Swapna Pradhan. Starring Tanaaz currim, Paritosh Painter, Kamya Punjabi, Ninad Kamat, Imran Khan and Kashyab Sampura. Produced by Vikram Pradhan.
    This is a hilarious play about the story of a couple whose marriage is on the rocks and by sudden change of fate they have new neighbours who happen to be old time time friends. Both husband and wife get attracted to their neighbours spouses and this makes for a lot of funny twists in the situation. Watch this play to laugh out all your woes and find out what happens to the two couples and their marriages.

    Media Info -
    Video
    ID : 0
    Format : AVC
    Format/Info : Advanced Video Codec
    Format profile : [email protected]
    Format settings, CABAC : Yes
    Format settings, ReFrames : 2 frames
    Codec ID : H264
    Duration : 2h 13mn
    Bit rate : 411 Kbps
    Width : 656 pixels
    Height : 480 pixels
    Display aspect ratio : 4:3
    Frame rate mode : Variable
    Frame rate : 25.000 fps
    Color space : YUV
    Chroma subsampling : 4:2:0
    Bit depth : 8 bits
    Scan type : Progressive
    Bits/(Pixel*Frame) : 0.052
    Stream size : 390 MiB (60%)
    Writing library : x264 core 112 r1834 a51816a

    Audio
    ID : 1
    Format : MPEG Audio
    Format version : Version 1
    Format profile : Layer 3
    Mode : Joint stereo
    Mode extension : MS Stereo
    Codec ID : 55
    Codec ID/Hint : MP3
    Duration : 2h 13mn
    Bit rate mode : Constant
    Bit rate : 256 Kbps
    Channel(s) : 2 channels
    Sampling rate : 44.1 KHz
    Compression mode : Lossy
    Stream size : 245 MiB (38%)
    Alignment : Aligned on interleaves
    Interleave, duration : 26 ms (0.65 video frame)
    Writing library : LAME3.98.4

    Ripper : Saket



    [ sample ]

    Code:
    http://www.arabloads.com/4ievwu65m7we

    [ DOWNLOAD ]


    Code:
    http://hugefiles.net/z1a4npd0x49m
    Code:
    http://filesflash.com/axkf5d8z
    Code:
    http://lumfile.com/6i443qbcohph/Yeh_Dil_Maange_More_-_Hindi_Play_2012__5BTMB.html
    Code:
    http://www.arabloads.com/u9l4hgds7uo7




 

 

Posting Permissions

  • You may not post new threads
  • You may not post replies
  • You may not post attachments
  • You may not edit your posts
  •