Results 1 to 1 of 1
  1. #1
    Hot Member www.desirulez.net
    Join Date
    Feb 2013
    Posts
    1,015

    Thumbs up Aashiqui 2 (HQ)(DvDScr).m4v - 3xd3si [For Android,IPhone & High End Devices][2013][ExDe$ Exclusive]

    Follow us on Social Media





    Aashiqui 2 (HQ)(DvDScr).m4v - 3xd3si [For Android,IPhone & High End Devices][2013][ExDe$ Exclusive]




    [ NFO ]

    InfO


    General
    Complete name : Aashiqui 2 (HQ)(DvDScr).m4v - 3xd3si [For Android,IPhone & High End Devices][2013][ExDe$ Exclusive].m4v
    Format : MPEG-4
    Format profile : Base Media / Version 2
    Codec ID : mp42
    File size : 834 MiB
    Duration : 2h 12mn
    Overall bit rate mode : Variable
    Overall bit rate : 883 Kbps
    Encoded date : UTC 2013-05-01 07:39:02
    Tagged date : UTC 2013-05-01 08:13:00
    Writing application : HandBrake 0.9.5 2011010300

    Video
    ID : 1
    Format : MPEG-4 Visual
    Format profile : [email protected]
    Format settings, BVOP : No
    Format settings, QPel : No
    Format settings, GMC : No warppoints
    Format settings, Matrix : Default (H.263)
    Codec ID : 20
    Duration : 2h 12mn
    Bit rate mode : Variable
    Bit rate : 688 Kbps
    Maximum bit rate : 4 389 Kbps
    Width : 448 pixels
    Height : 192 pixels
    Display aspect ratio : 2.35:1
    Frame rate mode : Constant
    Frame rate : 24.000 fps
    Color space : YUV
    Chroma subsampling : 4:2:0
    Bit depth : 8 bits
    Scan type : Progressive
    Compression mode : Lossy
    Bits/(Pixel*Frame) : 0.333
    Stream size : 650 MiB (78%)
    Writing library : Lavc52.94.3
    Encoded date : UTC 2013-05-01 07:39:02
    Tagged date : UTC 2013-05-01 08:13:00
    Color primaries : BT.601 NTSC
    Transfer characteristics : BT.709
    Matrix coefficients : BT.601

    Audio
    ID : 2
    Format : AAC
    Format/Info : Advanced Audio Codec
    Format profile : LC
    Codec ID : 40
    Duration : 2h 12mn
    Bit rate mode : Variable
    Bit rate : 192 Kbps
    Maximum bit rate : 232 Kbps
    Channel(s) : 2 channels
    Channel positions : Front: L R
    Sampling rate : 48.0 KHz
    Compression mode : Lossy
    Stream size : 181 MiB (22%)
    Encoded date : UTC 2013-05-01 07:39:02
    Tagged date : UTC 2013-05-01 08:13:00


    [ SCREEN ]






    [DOWNLOAD]


    Code:
    http://hugefiles.net/b5j3jifaxj8b
    Code:
    http://uptobox.com/wmbsaayal0xe
    Code:
    http://www.arabloads.com/fdvqjkogbhzy



 

 

Posting Permissions

  • You may not post new threads
  • You may not post replies
  • You may not post attachments
  • You may not edit your posts
  •