Results 1 to 1 of 1
  1. #1
    Hot Member www.desirulez.net
    Join Date
    Feb 2013
    Posts
    1,015

    Thumbs up HUM AAPKE DIL MEIN REHTE HAIN (1999) 1/3 DVDRip X264 AC3 Team DUS

    Follow us on Social Media





    HUM AAPKE DIL MEIN REHTE HAIN (1999) 1/3 DVDRip X264 AC3 Team DUS



    [ NFO ]

    Format : Matroska
    Format version : Version 2
    File size : 1.35 GiB
    Duration : 3h 3mn
    Overall bit rate : 1 050 Kbps


    Video
    ID : 1
    Format : AVC
    Format/Info : Advanced Video Codec
    Format profile : [email protected]
    Format settings, CABAC : Yes
    Format settings, ReFrames : 4 frames
    Codec ID : V_MPEG4/ISO/AVC
    Duration : 3h 3mn
    Bit rate : 863 Kbps
    Width : 640 pixels
    Height : 320 pixels
    Display aspect ratio : 2.000
    Frame rate mode : Constant
    Frame rate : 23.976 fps
    Color space : YUV
    Chroma subsampling : 4:2:0
    Bit depth : 8 bits
    Scan type : Progressive
    Bits/(Pixel*Frame) : 0.176
    Stream size : 1.07 GiB (80%)

    Language : English
    Default : Yes
    Forced : No

    Audio
    ID : 2
    Format : AC-3
    Format/Info : Audio Coding 3
    Mode extension : CM (complete main)
    Format settings, Endianness : Big
    Codec ID : A_AC3
    Duration : 3h 3mn
    Bit rate mode : Constant
    Bit rate : 192 Kbps
    Channel(s) : 6 channels
    Channel positions : Front: L C R, Side: L R, LFE
    Sampling rate : 48.0 KHz
    Bit depth : 16 bits
    Compression mode : Lossy
    Stream size : 252 MiB (18%)
    Default : Yes
    Forced : No



    [ SCREEN ]









    [ SAMPLE ]
    Code:
    http://www.arabloads.com/ew30qfu5nkom


    [ DOWNLOAD ]


    [ arabloads ]

    Code:
    http://www.arabloads.com/fg6wbfjt8dit
    [ hugefiles ]

    Code:
    http://hugefiles.net/obl93c5amblv
    [ uptobox ]

    Code:
    http://uptobox.com/t9rv1goi9x83




 

 

Posting Permissions

  • You may not post new threads
  • You may not post replies
  • You may not post attachments
  • You may not edit your posts
  •