Results 1 to 1 of 1
  1. #1
    Hot Member www.desirulez.net
    Join Date
    Feb 2013
    Posts
    1,015

    Thumbs up Bollywood Hollywood (2002) {13+} 1CD XViD DVDRip{Reloaded}

    Follow us on Social Media





    Bollywood Hollywood (2002) {13+} 1CD XViD DVDRip{Reloaded}



    [ NFO ]

    Format : AVI
    Format/Info : Audio Video Interleave
    File size : 698 MiB
    Duration : 1h 40mn
    Overall bit rate : 967 Kbps
    Writing application : VirtualDubMod 1.5.10.2 (build 2542/release)
    Writing library : VirtualDubMod build 2542/release

    Video
    ID : 0
    Format : MPEG-4 Visual
    Format profile : Advanced [email protected]
    Format settings, BVOP : 2
    Format settings, QPel : No
    Format settings, GMC : No warppoints
    Format settings, Matrix : Default (MPEG)
    Muxing mode : Packed bitstream
    Codec ID : XVID
    Codec ID/Hint : XviD
    Duration : 1h 40mn
    Bit rate : 861 Kbps
    Width : 640 pixels
    Height : 272 pixels
    Display aspect ratio : 2.35:1
    Frame rate : 23.976 fps
    Color space : YUV
    Chroma subsampling : 4:2:0
    Bit depth : 8 bits
    Scan type : Progressive
    Compression mode : Lossy
    Bits/(Pixel*Frame) : 0.206
    Stream size : 622 MiB (89%)
    Writing library : XviD 1.2.1 (UTC 2008-12-04)

    Audio
    ID : 1
    Format : MPEG Audio
    Format version : Version 1
    Format profile : Layer 3
    Mode : Joint stereo
    Mode extension : MS Stereo
    Codec ID : 55
    Codec ID/Hint : MP3
    Duration : 1h 40mn
    Bit rate mode : Constant
    Bit rate : 96.0 Kbps
    Channel(s) : 2 channels
    Sampling rate : 32.0 KHz
    Compression mode : Lossy
    Stream size : 69.3 MiB (10%)
    Alignment : Aligned on interleaves
    Interleave, duration : 42 ms (1.00 video frame)
    Interleave, preload duration : 504 ms
    Writing library : LAME3.98r



    [ Ripper -=Rangeela=-
    Subs Hard-coded where needed
    Language Hindi/English

    Rated PG-13 for sensuality/partial nudity, some crude language and drug references. ]





    [ screen ]














    [ sample full song ]

    Code:
    http://www.arabloads.com/o1l1szm1v349/Rang_Rang_Mere_Rang~HQ~.avi.html

    [ DOWNLOAD ]



    [ hugefiles ]

    Code:
    http://hugefiles.net/54qsoqfz7qge
    [ arabloads ]

    Code:
    http://www.arabloads.com/iyymzeoxhvir

    [ uptobox ]

    Code:
    http://uptobox.com/wojn9qiu8uqs







 

 

Posting Permissions

  • You may not post new threads
  • You may not post replies
  • You may not post attachments
  • You may not edit your posts
  •