Results 1 to 2 of 2
  1. #1
    Hot Member www.desirulez.net
    Join Date
    Feb 2013
    Posts
    1,015

    Thumbs up Ajj De Ranjhe (2012).[email protected] [EXD Exclusive]

    Follow us on Social Media





    Ajj De Ranjhe (2012).[email protected] [EXD Exclusive]



    [ NFO ]

    Rip Information

    Format : AVI
    Format/Info : Audio Video Interleave
    File size : 730 MiB
    Duration : 2h 24mn
    Overall bit rate : 708 Kbps


    Video

    Codec ID : XVID
    Codec ID/Hint : XviD
    Duration : 2h 24mn
    Bit rate : 571 Kbps
    Width : 672 pixels
    Height : 288 pixels
    Display aspect ratio : 2.35:1
    Frame rate : 29.970 fps
    Color space : YUV
    Chroma subsampling : 4:2:0
    Bit depth : 8 bits
    Scan type : Progressive
    Compression mode : Lossy
    Bits/(Pixel*Frame) : 0.098
    Stream size : 589 MiB (81%)
    Writing library : XviD 1.2.1 (UTC 2008-12-04)


    Audio

    Format : AC-3
    Format/Info : Audio Coding 3
    Mode extension : CM (complete main)
    Format settings, Endianness : Big
    Codec ID : 2000
    Duration : 2h 24mn
    Bit rate mode : Constant
    Bit rate : 128 Kbps
    Channel(s) : 6 channels
    Channel positions : Front: L C R, Side: L R, LFE
    Sampling rate : 48.0 KHz
    Bit depth : 16 bits
    Compression mode : Lossy
    Stream size : 132 MiB (18%)
    Alignment : Aligned on interleaves
    Interleave, duration : 64 ms (1.92 video frames)
    Interleave, preload duration : 192 ms
    Title : [email protected]



    [ screen ]












    [ sample ]

    Code:
    http://www.arabloads.com/07vv1h3ezccf

    [ SUBTITLE ]

    Code:
    http://www.arabloads.com/zuta2aitfsc1


    [ DOWNLOAD ]

    Code:
    http://www.arabloads.com/8envx1ecjvgo

    Code:
    http://filesflash.com/bd4ai8fj

    Code:
    http://hugefiles.net/lnu34ocjqcs8







  2. #2

    Default

    thanks,,,,,

 

 

Posting Permissions

  • You may not post new threads
  • You may not post replies
  • You may not post attachments
  • You may not edit your posts
  •