Results 1 to 1 of 1
  1. #1
    Hot Member www.desirulez.net
    Join Date
    Feb 2013
    Posts
    1,015

    Thumbs up Bikkar Bai Sentimental 2013 Punjabi Movie [1CD Camrip]

    Follow us on Social Media





    Bikkar Bai Sentimental 2013 Punjabi Movie [1CD Camrip]



    [ NFO ]

    General

    Complete name : bikkar bai sentimental.avi
    Format : AVI
    Format/Info : Audio Video Interleave
    File size : 575 MiB
    Duration : 1h 59mn
    Overall bit rate : 674 Kbps
    Writing application : Lavf51.12.1

    Video

    ID : 0
    Format : xvid
    Codec ID : xvid
    Duration : 1h 59mn
    Bit rate : 600 Kbps
    Width : 608 pixels
    Height : 300 pixels
    Display aspect ratio : 2.027
    Frame rate : 23.976 fps
    Bits/(Pixel*Frame) : 0.137
    Stream size : 512 MiB (89%)

    Audio

    ID : 1
    Format : MPEG Audio
    Format version : Version 1
    Format profile : Layer 3
    Mode : Joint stereo
    Mode extension : MS Stereo
    Codec ID : 55
    Codec ID/Hint : MP3
    Duration : 1h 59mn
    Bit rate mode : Constant
    Bit rate : 64.0 Kbps
    Channel(s) : 2 channels
    Sampling rate : 32.0 KHz
    Compression mode : Lossy
    Stream size : 54.6 MiB (9%)
    Alignment : Aligned on interleaves
    Interleave, duration : 36 ms (0.86 video frame)

    Movie Screenshots




    [ DOWNLOAD ]


    Code:
    http://www.arabloads.com/dmfvzkv0z4qx/bikkar_bai_sentimental.avi.html
    Code:
    http://filesflash.com/29secnc0


 

 

Posting Permissions

  • You may not post new threads
  • You may not post replies
  • You may not post attachments
  • You may not edit your posts
  •