Results 1 to 1 of 1
  1. #1
    dR Rockers www.desirulez.net
    Join Date
    Aug 2011
    Posts
    5,859

    Cool Login (2012) - 720p - HDRip - x264 - AC3 - Ondemandemails

    Follow us on Social Media












    Code:
    General
    Complete name: Login 2012 720p HDRip x264 AC3.mkv
    Format : Matroska
    Format version : Version 2
    File size: 2.18 GiB
    Duration : 1h 44mn
    Overall bit rate : 2 977 Kbps
    Encoded date : UTC 2013-03-08 16:44:42
    Writing application: mkvmerge v5.6.0 ('Kenya Kane') built on May 27 2012 16:44:04
    Writing library: libebml v1.2.3 + libmatroska v1.3.0
    
    Video
    ID : 1
    Format : AVC
    Format/Info: Advanced Video Codec
    Format profile : [email protected]
    Format settings, CABAC : Yes
    Format settings, ReFrames: 8 frames
    Codec ID : V_MPEG4/ISO/AVC
    Duration : 1h 44mn
    Bit rate : 2 591 Kbps
    Wid: 1 280 pixels
    Height : 544 pixels
    Display aspect ratio : 2.35:1
    Frame rate mode: Constant
    Frame rate : 24.000 fps
    Color space: YUV
    Chroma subsampling : 4:2:0
    Bit dep: 8 bits
    Scan type: Progreive
    Bits/(Pixel*Frame) : 0.155
    Stream size: 1.85 GiB (85%)
    Title: Login DDR
    Writing library: x264 core 125 r2200 999b753
    Language : English
    Default: Yes
    Forced : No
    Color primaries: Generic film
    Transfer characteristics : BT.709
    Matrix coefficients: BT.709
    
    Audio
    ID : 2
    Format : AC-3
    Format/Info: Audio Coding 3
    Mode extension : CM (complete main)
    Format settings, Endianne: Big
    Codec ID : A_AC3
    Duration : 1h 44mn
    Bit rate mode: Constant
    Bit rate : 384 Kbps
    Channel(s) : 2 channels
    Channel positions: Front: L R
    Sampling rate: 48.0 KHz
    Bit dep: 16 bits
    Compreion mode : Loy
    Stream size: 288 MiB (13%)
    Title: Login Audio DDR
    Language : Hindi
    Default: Yes
    Forced : No
    Source........[ HDTV[DDR] ]
    Ripper........[ 3obr0 ] 
     Release Date..[ 08/03/2013]
     Runtime.......[ 01:45:00] 
    Resolution....[ 1280 x 544] 
     Framerate.....[ 24.000]
     Disks.........[ 1/2 DVD5] 
     Size..........[ 2.17 GB ] 
     Video Codec...[ x264] 
     Video Bitrate.[ 2600 Kbps ] 
     Audio Info....[ 384 Kbps 2.0 AC3] 
     Audio Language[ Hindi ] 
    Subtitles.....[ NoNe. ] 
     Container.....[ MKV ]
     Cast Himanshu Bhatt Raghu Kumar Kar 
     Roy RadhikaMoutusi Guha 
     Akkash BasnetPavani Reddy 
      Rashmi GautamKautilya Chanakya
     Nandini RaiMadhu Sudhan Praful 
     Siddar ChopraRam Gopal Bajaj 
     BinojeeUttej 
     Director: Sanjeev Reddy
    ³ Writer: Sanjeev Reddy
    Genre : Drama  riller 
    "Login" is a Hindi feature film about ree
    different individuals and how e Internet
     and social networking sites affect eir
    lives. True to its caption Connected online
     but disconnected in life, e film portrays 
    how everyone is glued to Internet and hence
     getting away from eir true selves. 
     Going online and browsing networking sites
     is not a bad ing. In fact, if used in e
     right perspective, it is a great tool to e
    human kind. But fraudsters, perverts, and
     bad-minds to exploit and take undue advantage 
     of e same use e very same Internet. And 
     e victims in most of ese cases are 
    innocents. What if ese elements creep into 
    your personal space? Will you feel tempted 
    and fall prey? ese are e questions at 
    Login tries to introspect.
     http://www.imdb.com/title/tt2188805/











    SINGLE DIRECT FAST LINKS
    Code:
    http://extabit.com/file/2dud04rnljlia/Login.2012.720p.HDRip.x264.AC3.mkv

    Code:
    http://lumfile.com/0hbe678aq5xd/Login.2012.720p.HDRip.x264.AC3.mkv.html

 

 

Posting Permissions

  • You may not post new threads
  • You may not post replies
  • You may not post attachments
  • You may not edit your posts
  •