Results 1 to 1 of 1
  1. #1
    dR Rockers www.desirulez.net
    Join Date
    Aug 2011
    Posts
    5,859

    Cool Future to Bright Hai Ji (2013) - 720p - HDRip - x264 - AC3 - Ondemandemails

    Follow us on Social Media












    Code:
    General
    Complete name                  : Future to Bright Hai Ji 720p x264 AC3.mkv
    Format                         : Matroska
    Format version                 : Version 2
    File size                      : 2.50 GiB
    Duration                       : 1h 51mn
    Overall bit rate               : 3 194 Kbps
    Encoded date                   : UTC 2013-03-03 10:26:49
    Writing application            : mkvmerge v5.7.0 ('The Whirlwind') built on Jul  8 2012 20:08:51
    Writing library                : libebml v1.2.3 + libmatroska v1.3.0
    
    Video
    ID                             : 1
    Format                         : AVC
    Format/Info                    : Advanced Video Codec
    Format profile                 : [email protected]
    Format settings, CABAC         : Yes
    Format settings, ReFrames      : 6 frames
    Codec ID                       : V_MPEG4/ISO/AVC
    Duration                       : 1h 51mn
    Bit rate                       : 2 744 Kbps
    Width                          : 1 280 pixels
    Height                         : 544 pixels
    Display aspect ratio           : 2.35:1
    Frame rate mode                : Constant
    Frame rate                     : 24.979 fps
    Original frame rate            : 24.975 fps
    Color space                    : YUV
    Chroma subsampling             : 4:2:0
    Bit depth                      : 8 bits
    Scan type                      : Progressive
    Bits/(Pixel*Frame)             : 0.158
    Stream size                    : 2.10 GiB (84%)
    Title                          : Future To Bright Hai Ji 720p [DDR]
    Writing library                : x264 core 129 r2245 bc13772
    Language                       : Hindi
    Default                        : Yes
    Forced                         : No
    Color primaries                : BT.709
    Transfer characteristics       : BT.709
    Matrix coefficients            : BT.709
    
    Audio
    ID                             : 2
    Format                         : AC-3
    Format/Info                    : Audio Coding 3
    Mode extension                 : CM (complete main)
    Format settings, Endianness    : Big
    Codec ID                       : A_AC3
    Duration                       : 1h 51mn
    Bit rate mode                  : Constant
    Bit rate                       : 448 Kbps
    Channel(s)                     : 6 channels
    Channel positions              : Front: L C R, Side: L R, LFE
    Sampling rate                  : 48.0 KHz
    Bit depth                      : 16 bits
    Compression mode               : Lossy
    Delay relative to video        : 15ms
    Stream size                    : 359 MiB (14%)
    Title                          : 5.1 AC3 [DDR]
    Language                       : Hindi
    Default                        : Yes
    Forced                         : No
    
     ú     ß ÛÛ Ü |          Release Date..[ 03/03/2013      ]         ÞÛÝ         
      Ü²Ü   ßßßß  |          Runtime.......[ 01:51:57        ]         ÛÛ          
      ßÜß  ÜßßÛÜ  |          Resolution....[ 1280 x 544      ]         ÞÛ°    Ü²Ü  
          þ  Ü ßÛ Àú         Framerate.....[ 24.975          ]          ÛÛ    ßÜß  
            ²ÛÛ ÛÝ|          Disks.........[ 1xDVD5          ]          ÛÛ         
      þ  °  ÛÛ ÞÛÝ|          Size..........[ 2.50 GB         ]
             ßÛÛß            Video Codec...[ x264            ]               ßÛÛß  
          °   ÛÛÜ            Video Bitrate.[ 2744 Kbps       ]            °   ÛÛÜ  
        °  °þß ÛÛ            Audio Info....[ 448 Kbps 5.1 AC3]          °  °þß ÛÛ  
         °  °  ²ÛÜß          Audio Language[ Hindi           ]           °  °  ²ÛÜß
       °  °° °ÛÛÛ            Subtitles.....[ English         ]
    °    ÜÛÛÛ    °           Container.....[ MKV             ]
       ÜßÛÜ ° °   À      Cast    : Sanjay Amar                          °°°°  ²Ûß   
       ÛÛ²² °    °|                Asrani                              °    ܲÛß    
        ßß   °    |                Satish Kaushik                      °  ßÜÛÛÛ ß   
      ÛÛ          |                Sonal Sehgal 
     °  ÛÛÛ °°°°  .      Director: Sanjay Amar                           ÛÛÛ  °°°   
          ßÛÛÛ Üþ |      Writer  : Sanjay Amar
       °  °þß ÛÛ         Genre   : Drama 
       °°Û            The plot focuses on the seven days Ajay             ÛÛÛÛ  °  
       ° Û            (Aamir Bashir) is allotted to come up              ÛÛÛß  þ°  
       °ÜÛ            with a script for a wannabe producer.            °ÛÛß Üß° °  
         ÛÛÛþ °       But thanks to his petulant wife (Sonal         ÞÛÛ  ÜÛ       
         ° ÛÛÛÛ       Sehgal) who recklessly believes in stardom,     ÛÝ ÛÛ  °  °  
      °  °°°° ÛÛ      he keeps wasting time and facing unnecessary   ° ÛÛÛ °   °°  
       ° °° Ü ÛÛ      troubles. And while he’s at it, several        °  ÛÛÛ°° °°   
       °°°°  ²Ûß      weird yet interesting characters enter           ° ÛÛÛ°°°°°  
      °    ܲÛß       the picture providing some twists and            ° Û ÛÛ  °°° 
      °  ßÜßÛÛ ß      turns to the flow. At the end of the day,        °  ÛÛ Û  °° 
       ßÜßÛÛ ß        he’s just another struggling writer in           °°  Û ÛÛ  ° 
       ÜÛÛÛß  þ       this big badass city.
         ° ÛÜ            http://www.imdb.com/title/tt2253708/









    SINGLE DIRECT FAST LINKS
    Code:
    http://extabit.com/file/2dud04rnljlia/Login.2012.720p.HDRip.x264.AC3.mkv

    Code:
    http://lumfile.com/0hbe678aq5xd/Login.2012.720p.HDRip.x264.AC3.mkv.html

 

 

Posting Permissions

  • You may not post new threads
  • You may not post replies
  • You may not post attachments
  • You may not edit your posts
  •