Results 1 to 1 of 1
  1. #1
    dR Rockers www.desirulez.net
    Join Date
    Aug 2011
    Posts
    5,859

    Cool Murder 3 (2013) - 720p - HD - x264 - AC3 - Ondemandemails

    Follow us on Social Media












    Code:
    General
    Complete name: Murder 3 2013 720p x264 AC3.mkv
    Format : Matroska
    Format version : Version 2
    File size: 2.25 GiB
    Duration : 1h 58mn
    Overall bit rate : 2 720 Kbps
    Encoded date : UTC 2013-04-07 00:08:22
    Writing application: mkvmerge v5.6.0 ('Kenya Kane') built on May 27 2012 16:44:04
    Writing library: libebml v1.2.3 + libmatroska v1.3.0
    
    Video
    ID : 1
    Format : AVC
    Format/Info: Advanced Video Codec
    Format profile : [email protected]
    Format settings, CABAC : Yes
    Format settings, ReFrames: 6 frames
    Muxing mode: Header stripping
    Codec ID : V_MPEG4/ISO/AVC
    Duration : 1h 58mn
    Bit rate : 2 273 Kbps
    Wid: 1 280 pixels
    Height : 544 pixels
    Display aspect ratio : 2.35:1
    Frame rate mode: Constant
    Frame rate : 23.976 fps
    Color space: YUV
    Chroma subsampling : 4:2:0
    Bit dep: 8 bits
    Scan type: Progreive
    Bits/(Pixel*Frame) : 0.136
    Stream size: 1.83 GiB (82%)
    Title: Murder 3 720p [DDR]
    Writing library: x264 core 125 r2200 999b753
    Language : Hindi
    Default: Yes
    Forced : No
    Color primaries: Generic film
    Transfer characteristics : BT.709
    Matrix coefficients: BT.709
    
    Audio
    ID : 2
    Format : AC-3
    Format/Info: Audio Coding 3
    Mode extension : CM (complete main)
    Format settings, Endianne: Big
    Muxing mode: Header stripping
    Codec ID : A_AC3
    Duration : 1h 58mn
    Bit rate mode: Constant
    Bit rate : 448 Kbps
    Channel(s) : 6 channels
    Channel positions: Front: L C R, Side: L R, LFE
    Sampling rate: 48.0 KHz
    Bit dep: 16 bits
    Compreion mode : Loy
    Stream size: 379 MiB (16%)
    Title: Hindi 5.1 (Channels Fixed) [DDR]
    Language : Hindi
    Default: Yes
    Forced : No
    
     Release Date..[ 06/04/2013]
     Runtime.......[ 01:58:17] 
    Resolution....[ 1280 x 544] 
     Framerate.....[ 23.976]
     Disks.........[ 1xDVD6] 
     Size..........[ 2.25 GB ]
     Video Codec...[ x264] 
     Video Bitrate.[ 2720 Kbps ]
     Audio Info....[ 448 Kbps DD 5.1 ] 
     Audio Language[ Hindi ] 
    Subtitles.....[ English ]
     Container.....[ MKV ] 
    Cast: Randeep Hooda 
    Aditi Rao Hydari
     Sara Loren 
    .Director: Vishesh Bhatt
    Writer: Mahesh Bhatt, Hatem Khraiche 
     Genre : riller 
    A hot-shot fashion and wildlife photographer 
     Vikram gets into a relationship wi Nisha. 
    She moves in wi him in his palatial house
     outside of e city. e old world house,
     made decades ago is as beautiful as it is 
     scary. It holds many secrets which Nisha is
     soon to unear; of e life of e man who 
    made it and of Vikram, who is dealing wi 
     e mysterious disappearance of his former
     girlfriend Roshni. 
    http://www.imdb.com/title/tt2429640/









    SINGLE DIRECT FAST LINKS

    Code:
    http://lumfile.com/qewdyz8rsptc/Murder.3.2013.720p.x264.AC3.mkv.html
    http://lumfile.com/c9amavcs6rcn/Murder.3.2013.720p.x264.AC3.srt.html

    Code:
    http://extabit.com/file/2dud04rno120y/Murder.3.2013.720p.x264.AC3.mkv
    http://extabit.com/file/2dud04rnkwy02/Murder.3.2013.720p.x264.AC3.srt

 

 

Posting Permissions

  • You may not post new threads
  • You may not post replies
  • You may not post attachments
  • You may not edit your posts
  •