Results 1 to 1 of 1
  1. #1
    Hot Member www.desirulez.net
    Join Date
    Feb 2013
    Posts
    1,015

    Thumbs up Dushmani a violent love story 1995 -DVDRip - x264 - 1CDRip { Team ExDRS }

    Follow us on Social Media









    [ NFO ]


    [ Rip Information ]

    Complete name : Dushmani a violent love story 1995 -DVDRip - x264 - 1CDRip Wild Tiger
    Format : Matroska
    Format version : Version 4 / Version 2
    File size : 697 MiB
    Duration : 3h 3mn
    Overall bit rate mode : Variable
    Overall bit rate : 532 Kbps
    Movie name : Dushmani a violent love story 1995 -DVDRip - x264 - 1CDRip Wild Tiger


    [ Video ]

    Format : AVC
    Format/Info : Advanced Video Codec
    Format profile : [email protected]
    Format settings, CABAC : Yes
    Format settings, ReFrames : 4 frames
    Codec ID : V_MPEG4/ISO/AVC
    Duration : 3h 3mn
    Bit rate : 454 Kbps
    Width : 640 pixels
    Height : 288 pixels
    Display aspect ratio : 2.40:1
    Frame rate mode : Constant
    Frame rate : 23.976 fps
    Color space : YUV
    Chroma subsampling : 4:2:0
    Bit depth : 8 bits
    Scan type : Progressive
    Bits/(Pixel*Frame) : 0.103
    Stream size : 584 MiB (84%)
    Title : Dushmani a violent love story 1995 -DVDRip - x264 - 1CDRip Wild Tiger


    [ Audio ]

    Format : MPEG Audio
    Format version : Version 1
    Format profile : Layer 3
    Mode : Joint stereo
    Mode extension : MS Stereo
    Codec ID : A_MPEG/L3
    Codec ID/Hint : MP3
    Duration : 3h 3mn
    Bit rate mode : Variable
    Bit rate : 75.9 Kbps
    Nominal bit rate : 80.0 Kbps
    Channel(s) : 2 channels
    Sampling rate : 32.0 KHz
    Compression mode : Lossy
    Stream size : 99.4 MiB (14%)
    Title : Wild Tiger
    Language : Hindi



    [ SCREEN ]











    [ SAMPLE ]

    Code:
    http://www.arabloads.com/wija7p11j6dy

    [ DOWNLOAD ]


    [ arabloads ]

    Code:
    http://www.arabloads.com/bcb6gk58j81i
    [ filesflash ]

    Code:
    http://filesflash.com/lclt7of8
    [ hugefiles ]

    Code:
    http://hugefiles.net/epk15p9p34tr
    [ hugefiles ]

    Code:
    http://uptobox.com/3wcoymo1kdxz



 

 

Posting Permissions

  • You may not post new threads
  • You may not post replies
  • You may not post attachments
  • You may not edit your posts
  •