Results 1 to 1 of 1
  1. #1
    Super Member www.desirulez.net
    Join Date
    Sep 2012
    Location
    Pakistan
    Posts
    354

    Default Ek Thi Daayan (2013) (New Source) XViD AC3 580MB DVDScr [John ExD Rip]

    Follow us on Social Media











    Code:
    Format : AVI
    Format/Info : Audio Video Interleave
    File size : 587 MiB
    Duration : 2h 5mn
    Overall bit rate : 655 Kbps
    
    Video
    ID : 0
    Format : MPEG-4 Visual
    Format profile : Advanced [email protected]
    Format settings, BVOP : 2
    Format settings, QPel : No
    Format settings, GMC : No warppoints
    Format settings, Matrix : Default (H.263)
    Codec ID : XVID
    Codec ID/Hint : XviD
    Duration : 2h 5mn
    Bit rate : 584 Kbps
    Width : 640 pixels
    Height : 256 pixels
    Display aspect ratio : 2.500
    Frame rate : 19.181 fps
    Color space : YUV
    Chroma subsampling : 4:2:0
    Bit depth : 8 bits
    Scan type : Progressive
    Compression mode : Lossy
    Bits/(Pixel*Frame) : 0.186
    Stream size : 523 MiB (89%)
    Writing library : XviD 1.2.1 (UTC 2008-12-04)
    
    Audio
    ID : 1
    Format : AC-3
    Format/Info : Audio Coding 3
    Mode extension : CM (complete main)
    Format settings, Endianness : Big
    Codec ID : 2000
    Duration : 2h 5mn
    Bit rate mode : Constant
    Bit rate : 64.0 Kbps
    Channel(s) : 2 channels
    Channel positions : Front: L R
    Sampling rate : 48.0 KHz
    Bit depth : 16 bits
    Compression mode : Lossy
    Stream size : 57.4 MiB (10%)
    Alignment : Aligned on interleaves
    Interleave, duration : 64 ms (1.23 video frame)
    Interleave, preload duration : 192 ms










    DOWNLOAD



    Code:
    http://rapidgator.net/file/1f6070b84aa9eb9e42182d60ebf633a9/Ek_Thi_Daayan_(2013)__XViD_AC3_580MB_DVDScr[John_ExD_Rip.avi.html

    Code:
    http://lumfile.com/bsyzvq3kfpkv/Ek_Thi_Daayan_(2013)_XViD_AC3_580MB_DVDScr[John_ExD_Rip.avi.html

    Code:
    http://uploaded.net/file/xph722ya/Ek%20Thi%20Daayan%20%282013%29%20%20XViD%20AC3%20580MB%20DVDScr%5BJohn%20ExD%20Rip.avi

 

 

Posting Permissions

  • You may not post new threads
  • You may not post replies
  • You may not post attachments
  • You may not edit your posts
  •