Results 1 to 1 of 1
  1. #1
    dR Rockers www.desirulez.net
    Join Date
    Aug 2011
    Posts
    5,859

    Cool Commando (2013) - 1CD - DVDScr - x264 - Mp3 - WildTiger

    Follow us on Social Media














    Code:
    Complete name                            : Commando 2013 - DVDScr - x264 - Mp3 - Wild Tiger
    Format                                   : Matroska
    Format version                           : Version 4 / Version 2
    File size                                : 748 MiB
    Duration                                 : 1h 58mn
    Overall bit rate mode                    : Variable
    Overall bit rate                         : 880 Kbps
    Movie name                               : Commando 2013 - DVDScr - x264 - Mp3 - Wild Tiger
    
    
    Video
    Code  Code:
    
    Format                                   : AVC
    Format/Info                              : Advanced Video Codec
    Format profile                           : [email protected]
    Format settings, CABAC                   : Yes
    Format settings, ReFrames                : 4 frames
    Codec ID                                 : V_MPEG4/ISO/AVC
    Duration                                 : 1h 58mn
    Bit rate                                 : 796 Kbps
    Width                                    : 720 pixels
    Height                                   : 352 pixels
    Display aspect ratio                     : 2.045
    Frame rate mode                          : Constant
    Frame rate                               : 25.000 fps
    Color space                              : YUV
    Chroma subsampling                       : 4:2:0
    Bit depth                                : 8 bits
    Scan type                                : Progressive
    Bits/(Pixel*Frame)                       : 0.126
    Stream size                              : 665 MiB (89%)
    Title                                    : Commando 2013 - DVDScr - x264 - Mp3 - Wild Tiger
    
    
    Audio
    Code  Code:
    
    Format                                   : MPEG Audio
    Format version                           : Version 1
    Format profile                           : Layer 3
    Mode                                     : Joint stereo
    Mode extension                           : MS Stereo
    Codec ID                                 : A_MPEG/L3
    Codec ID/Hint                            : MP3
    Duration                                 : 2h 1mn
    Bit rate mode                            : Variable
    Bit rate                                 : 80.0 Kbps
    Channel(s)                               : 2 channels
    Sampling rate                            : 32.0 KHz
    Compression mode                         : Lossy
    Stream size                              : 69.7 MiB (9%)
    Title                                    : Wild Tiger
    Language                                 : Hindi











    SINGLE DIRECT FAST LINKS


    Code:
    http://lumfile.com/jxnjdz8qp73a/Commando.2013.DVDScr.x264.Mp3.Wild.Tiger.mkv.html

    Code:
    http://extabit.com/file/2duchh176w8gz/Commando.2013.DVDScr.x264.Mp3.Wild.Tiger.mkv

 

 

Posting Permissions

  • You may not post new threads
  • You may not post replies
  • You may not post attachments
  • You may not edit your posts
  •