Results 1 to 1 of 1
  1. #1
    dR Rockers www.desirulez.net
    Join Date
    Aug 2011
    Posts
    5,859

    Cool I, Me Aur Main (2013) - 720p - DVDRip - x264 - 6Ch- E-SUB - [Kartik Exclusive]

    Follow us on Social Media











    Code:
    Rip Information
    
    Code  Code:
    
    Format                                   : Matroska
    Format version                           : Version 4 / Version 2
    File size                                : 1.31 GiB
    Duration                                 : 1h 45mn
    Overall bit rate                         : 1 791 Kbps
    Movie name                               : I. Me Aur Main (2013)-720p.DVDRip-x264.6Ch-[E-SUB][email protected] [[email protected] Exclusive]
    
    Video
    
    Code  Code:
    
    Format                                   : AVC
    Format/Info                              : Advanced Video Codec
    Format profile                           : [email protected]
    Format settings, CABAC                   : Yes
    Format settings, ReFrames                : 4 frames
    Codec ID                                 : V_MPEG4/ISO/AVC
    Duration                                 : 1h 45mn
    Bit rate                                 : 1 344 Kbps
    Width                                    : 1 280 pixels
    Height                                   : 544 pixels
    Display aspect ratio                     : 2.35:1
    Frame rate mode                          : Constant
    Frame rate                               : 23.976 fps
    Color space                              : YUV
    Chroma subsampling                       : 4:2:0
    Bit depth                                : 8 bits
    Scan type                                : Progressive
    Bits/(Pixel*Frame)                       : 0.081
    Stream size                              : 982 MiB (73%)
    Title                                    : [email protected]
    Writing library                          : x264 core 130 r2273 b3065e6
    
    Audio
    
    Code  Code:
    
    Format                                   : AC-3
    Format/Info                              : Audio Coding 3
    Mode extension                           : CM (complete main)
    Format settings, Endianness              : Big
    Codec ID                                 : A_AC3
    Duration                                 : 1h 45mn
    Bit rate mode                            : Constant
    Bit rate                                 : 448 Kbps
    Channel(s)                               : 6 channels
    Channel positions                        : Front: L C R, Side: L R, LFE
    Sampling rate                            : 48.0 KHz
    Bit depth                                : 16 bits
    Compression mode                         : Lossy
    Stream size                              : 337 MiB (25%)
    Title                                    : [email protected]
    Language                                 : Hindi













    SINGLE DIRECT FAST LINKS

    Code:
    http://lumfile.com/dbms5c7ry4gh/I..Me.Aur.Main.(2013).720p.DVDRip-x264.6Ch-[E-SUB][email protected][[email protected]].mkv.html
    http://lumfile.com/6w35evcan2gz/I..Me.Aur.Main.(2013).720p.DVDRip-x264.6Ch-[E-SUB][email protected][[email protected]].srt.html

    Code:
    http://extabit.com/file/2duchh2fn2zpw/I..Me.Aur.Main.(2013).720p.DVDRip-x264.6Ch-[E-SUB][email protected][[email protected]].mkv
    http://extabit.com/file/2duchh2fn27dw/I..Me.Aur.Main.(2013).720p.DVDRip-x264.6Ch-[E-SUB][email protected][[email protected]].srt

 

 

Posting Permissions

  • You may not post new threads
  • You may not post replies
  • You may not post attachments
  • You may not edit your posts
  •