Results 1 to 1 of 1
  1. #1
    Super Member www.desirulez.net
    Join Date
    Apr 2013
    Posts
    211

    Arrow I. Me Aur Main (2013)-720p.DVDRip-x264.6Ch-[E-SUB]-By-Kartik [Kartik Exclusive]

    Follow us on Social Media





    I. Me Aur Main (2013)-720p.DVDRip-x264.6Ch-[E-SUB]-By-Kartik [Kartik Exclusive]



    MEDIA-INFO
    Code:
    Rip Information
    Format                                   : Matroska
    Format version                           : Version 4 / Version 2
    File size                                : 1.31 GiB
    Duration                                 : 1h 45mn
    Overall bit rate                         : 1 791 Kbps
    Movie name                               : I. Me Aur Main (2013)-720p.DVDRip-x264.6Ch-[E-SUB][email protected] [[email protected] Exclusive]
    Video
    
    Format                                   : AVC
    Format/Info                              : Advanced Video Codec
    Format profile                           : [email protected]
    Format settings, CABAC                   : Yes
    Format settings, ReFrames                : 4 frames
    Codec ID                                 : V_MPEG4/ISO/AVC
    Duration                                 : 1h 45mn
    Bit rate                                 : 1 344 Kbps
    Width                                    : 1 280 pixels
    Height                                   : 544 pixels
    Display aspect ratio                     : 2.35:1
    Frame rate mode                          : Constant
    Frame rate                               : 23.976 fps
    Color space                              : YUV
    Chroma subsampling                       : 4:2:0
    Bit depth                                : 8 bits
    Scan type                                : Progressive
    Bits/(Pixel*Frame)                       : 0.081
    Stream size                              : 982 MiB (73%)
    Title                                    : [email protected]
    Writing library                          : x264 core 130 r2273 b3065e6
    Audio
    
    Format                                   : AC-3
    Format/Info                              : Audio Coding 3
    Mode extension                           : CM (complete main)
    Format settings, Endianness              : Big
    Codec ID                                 : A_AC3
    Duration                                 : 1h 45mn
    Bit rate mode                            : Constant
    Bit rate                                 : 448 Kbps
    Channel(s)                               : 6 channels
    Channel positions                        : Front: L C R, Side: L R, LFE
    Sampling rate                            : 48.0 KHz
    Bit depth                                : 16 bits
    Compression mode                         : Lossy
    Stream size                              : 337 MiB (25%)
    Title                                    : [email protected]
    Language                                 : Hindi
    SCREENSHOTS







    SINGLE DIRECT FAST LINKS
    Code:
    http://rapidgator.net/file/71394f02f7b75aec2d9a416a4e57b92a/I.Me.Aur.Main.2013.720p.DVDRip.x264.6Ch.E-SUB.EXD.mkv.html
    
    http://ul.to/29fm1cx7
    
    http://clz.to/mkaq93rp
    SPLIT RESUME FAST LINKS
    Code:
    http://clz.to/57zstgsj
    http://clz.to/v5zkchkr
    Code:
    http://www.filegag.com/yt0dj38dvq7s
    http://www.filegag.com/plulx15dudbs
    Code:
    http://ultramegabit.com/file/details/ghvVAYvuCJg
    http://ultramegabit.com/file/details/GRuDYx1HMH8

 

 

Posting Permissions

  • You may not post new threads
  • You may not post replies
  • You may not post attachments
  • You may not edit your posts
  •