Results 1 to 1 of 1
  1. #1

    Cool I. Me Aur Main (2013) - 1CD - DvdRip - XviD - ESubs [Team EXD]

    Follow us on Social Media
















    Rip Information

    Format : AVI
    Format/Info : Audio Video Interleave
    File size : 589 MiB
    Duration : 1h 45mn
    Overall bit rate : 784 Kbps


    Video

    Format : MPEG-4 Visual
    Format profile : Advanced [email protected]
    Format settings, BVOP : 3
    Format settings, QPel : No
    Format settings, GMC : No warppoints
    Format settings, Matrix : Default (MPEG)
    Codec ID : XVID
    Codec ID/Hint : XviD
    Duration : 1h 45mn
    Bit rate : 648 Kbps
    Width : 688 pixels
    Height : 288 pixels
    Display aspect ratio : 2.40:1
    Frame rate : 23.976 fps
    Color space : YUV
    Chroma subsampling : 4:2:0
    Bit depth : 8 bits
    Scan type : Progressive
    Compression mode : Lossy
    Bits/(Pixel*Frame) : 0.136
    Stream size : 487 MiB (83%)
    Writing library : XviD 1.2.1 (UTC 2008-12-04)


    Audio

    Format : AC-3
    Format/Info : Audio Coding 3
    Mode extension : CM (complete main)
    Format settings, Endianness : Big
    Codec ID : 2000
    Duration : 1h 45mn
    Bit rate mode : Constant
    Bit rate : 128 Kbps
    Channel(s) : 6 channels
    Channel positions : Front: L C R, Side: L R, LFE
    Sampling rate : 48.0 KHz
    Bit depth : 16 bits
    Compression mode : Lossy
    Stream size : 96.2 MiB (16%)
    Alignment : Aligned on interleaves
    Interleave, duration : 64 ms (1.53 video frames)
    Interleave, preload duration : 512 ms
    Title : [email protected]


    Code:
    http://rapidgator.net/file/6210354f100f96d01ca19aebfce48747/I._Me_Aur_Main_(2013)-DVDRip_-_XviD_-_1CDRip_-E_Sub-_[Team_EXD].avi.html
    
    http://ul.to/uienrzps
    
    http://ultramegabit.com/file/details/cvIW5jR6bog
    
    http://www.filegag.com/12l9xljm5hvd

 

 

Posting Permissions

  • You may not post new threads
  • You may not post replies
  • You may not post attachments
  • You may not edit your posts
  •